<?xml version="1.0" standalone="no"?>
<!DOCTYPE svg PUBLIC "-//W3C//DTD SVG 1.1//EN" "http://www.w3.org/Graphics/SVG/1.1/DTD/svg11.dtd" >
<svg xmlns="http://www.w3.org/2000/svg">
<metadata>Generated by IcoMoon</metadata>
<defs>
<font id="icomoon" horiz-adv-x="1024">
<font-face units-per-em="1024" ascent="870.850439882698" descent="-153.14956011730206" />
<missing-glyph horiz-adv-x="1024" />
<glyph unicode="&#x20;" d="" />
<glyph unicode="&#xe80e;" glyph-name="mode-grid" d="M-0.001-160.001v256h256v-256h-256zM-0.001 224.001v256h256v-256h-256zM-0.001 608v256h256v-256h-256zM383.998-160.001v256h256v-256h-256zM383.998 224.001v256h256v-256h-256zM383.998 608v256h256v-256h-256zM768-160.001v256h256v-256h-256zM768 224.001v256h256v-256h-256zM768 608v256h256v-256h-256z" />
<glyph unicode="&#xe80f;" glyph-name="mode-list" d="M0.001-160.001v256h256v-256h-256zM0.001 224.001v256h256v-256h-256zM0.001 608v256h256v-256h-256zM400.384-160.001v256h623.615v-256h-623.615zM400.384 224.001v256h623.615v-256h-623.615zM400.384 608v256h623.615v-256h-623.615z" />
<glyph unicode="&#xe819;" glyph-name="angle-left" horiz-adv-x="366" d="M366.001 612.705q0-7.883-6.757-13.514l-246.628-247.755 246.628-246.628q6.757-6.757 6.757-14.64t-6.757-14.64l-31.532-31.532q-5.631-5.631-13.514-5.631t-14.64 5.631l-292.802 293.928q-6.757 5.631-6.757 13.514t6.757 14.64l292.802 292.802q5.631 6.757 14.64 6.757t13.514-6.757l31.532-31.532q6.757-5.631 6.757-14.64z" />
<glyph unicode="&#xe81a;" glyph-name="angle-right" horiz-adv-x="366" d="M366 351.437q0-7.883-5.631-13.514l-293.928-293.928q-5.631-5.631-13.514-5.631t-14.64 5.631l-31.532 31.532q-6.757 6.757-6.757 14.64t6.757 14.64l246.628 246.628-246.628 247.755q-6.757 5.631-6.757 13.514t6.757 14.64l31.532 31.532q5.631 6.757 14.64 6.757t13.514-6.757l293.928-292.802q5.631-5.631 5.631-14.64z" />
<glyph unicode="&#xe82c;" glyph-name="cancel" horiz-adv-x="807" d="M807.003 105.517q0-26.778-18.258-46.254l-92.507-92.507q-19.475-18.258-46.254-18.258t-46.254 18.258l-199.621 200.838-199.621-200.838q-19.475-18.258-46.254-18.258t-46.254 18.258l-92.507 92.507q-19.475 19.475-19.475 46.254t19.475 46.254l199.621 199.621-199.621 199.621q-19.475 19.475-19.475 46.254t19.475 46.254l92.507 92.507q19.475 19.475 46.254 19.475t46.254-19.475l199.621-199.621 199.621 199.621q19.475 19.475 46.254 19.475t46.254-19.475l92.507-92.507q18.258-18.258 18.258-46.254t-18.258-46.254l-199.621-199.621 199.621-199.621q18.258-18.258 18.258-46.254z" />
<glyph unicode="&#xe900;" glyph-name="11" d="M493.301 545.084h32.999v-32.999h-32.999v32.999zM493.301 479.085h32.999v-22h-32.999v22zM493.301 435.086h32.999v-43.999h-32.999v43.999zM1018.222 432.6l-149.179 173.093c-31.383 46.882-83.466 71.389-139.719 71.389h-17.424l-59.223 67.847c-8.558 9.328-22.836 9.757-32.857 2.046l-3.993-3.894h-208.391l-3.972 5.588c-10.009 7.733-24.309 4.235-32.89-5.093l-58.364-66.494h-17.566c-56.231 0-108.315-24.365-139.565-71.114l-149.322-174.984c-8.69-10.307-7.404-24.849 2.916-33.528l197.149-166.151c0.099-0.065 1.44-0.968 1.517-1.035 6.82-5.599 15.729-6.765 23.506-4.125l0.275-253.291c0-13.496 10.934-21.769 24.419-21.769h513.161c13.496 0 24.409 8.316 24.43 21.79l0.153 254.502c1.881-0.639 3.861-1.684 5.84-1.86 6.49-0.516 12.848 1.155 17.83 5.346l198.249 167.362c5.005 4.169 8.117 10.053 8.701 16.565 0.572 6.479-1.484 12.837-5.687 17.809zM631.876 698.828l41.744-45.439-69.101-101.253-64.249 76.217 91.606 70.476zM573.501 721.081l-61.884-47.628-61.863 47.628h123.748zM391.399 698.74l91.485-70.399-64.172-76.206-69.123 101.066 41.81 45.539zM804.089 283.652l-16.544 19.602c-6.621 7.843-17.413 10.747-27.049 7.216s-16.049-12.496-16.049-22.726l-0.187-292.649h-464.345l-0.308 292.781c-0.021 10.273-6.424 19.316-16.060 22.836-9.647 3.497-20.427 0.584-27.027-7.238l-16.609-19.701-161.082 136.101 134.45 159.156c0.66 0.748 1.221 5.972 1.772 6.787 22.109 33.693 59.355 58.266 99.582 58.266h27.807l81.497-123.571c2.882-4.213 7.546-9.020 12.605-9.284 0.275-0.021 0.551-1.144 0.815-1.144 4.817 0 9.361 1.561 12.44 5.258l81.805 96.787 81.816-97.194c3.267-3.894 7.996-6.061 13.277-5.84 5.072 0.253 9.757 7.348 12.605 11.561l81.233 123.472h28.809c40.248 0 77.538-24.729 99.691-58.54 0.572-0.836 1.155-3.884 1.782-4.641l134.307-160.080-161.038-137.212z" />
<glyph unicode="&#xe901;" glyph-name="12" horiz-adv-x="816" d="M388.718 341.417h38.567v-38.567h-38.567v38.567zM683.269 649.957h-7.302c-8.253 38.567-20.415 61.695-36.087 85.194-74.73 111.884-206.349 125.807-233.358 127.003-0.321 0.025-2.25 1.388-2.275 1.388-0.463 0-1.067 0.578-1.53 0.436-28.45-1.427-157.213-19.027-230.659-129.189-15.672-23.423-27.653-46.32-36.099-84.887h-9.166c-72.944 0-123.749-44.726-123.749-112.771v-579.629c0-67.994 50.987-117.502 123.749-117.502h556.565c72.944 0 129.599 49.508 129.599 117.502v579.642c0 68.072-56.732 112.81-129.689 112.81zM602.175 699.876c48.607-84.167 43.967-209.408-14.141-372.638-28.965 32.23-72.636 73.291-128.533 103.502 41.678 37.526 107.372 105.469 130.423 178.657 9.565 30.802 13.73 61.553 12.253 90.478zM405.803 464.422c-33.721 28.758-104.35 95.223-125.396 162.086-1.697 5.219-3.639 12.329-5.412 20.621 29.825 35.611 78.009 56.796 129.728 56.796 53.081 0 102.036-22.009 131.502-59.060-1.632-7.264-3.356-13.615-4.988-18.409-21.070-66.76-91.687-133.2-125.435-162.034zM289.766 755.888c21.2 30.802 60.41 48.543 115.702 52.748 56.269-4.139 95.518-21.919 116.576-52.748 6.877-10.079 11.866-21.354 14.978-34.235-37.95 25.211-84.025 38.94-131.489 38.94-47.052 0-92.934-13.59-130.641-38.439 3.174 12.676 8.022 23.823 14.875 33.734zM209.765 699.876c-1.465-28.873 2.674-59.676 12.265-90.466 23.14-73.136 88.744-141.144 130.435-178.657-55.819-30.224-99.582-71.207-128.43-103.502-58.096 163.243-62.865 288.51-14.269 372.625zM761.535-44.244h-5.825c0-38.567-31.406-64.279-70.231-64.279h-562.942c-38.619 0-68.072 27.267-68.072 61.58v587.304c0 34.274 29.247 58.172 68.072 58.172h2.635c-9.526-89.99 12.676-204.96 65.873-337.965l15.966-38.863c0.862-2.289 2.944-3.291 5.361-3.548 0.257-0.039 0.424 0.218 0.643 0.218 2.211 0 4.050 1.183 5.322 2.956l24.144 35.624c2.725 3.869 67.196 94.657 163.114 135.963 98.050-42.282 162.575-135.025 163.166-135.963l24.041-35.508c1.337-1.8 3.24-2.867 5.387-2.867 0.282 0 0.463 0 0.695 0.051 2.365 0.27 4.474 1.786 5.373 4.036l15.89 39.904c53.235 132.955 78.78 247.229 69.152 339.933 38.143-0.527 72.211-28.192 72.211-62.171l0.025-584.578zM388.718 264.294h38.567v-38.567h-38.567v38.567z" />
<glyph unicode="&#xe902;" glyph-name="13" d="M1023.194 221.083c-1.201 6.616-7.92 39.654-60.446 39.654-24.485 0-60.088-7.33-83.176-15.735v49.605c0 11.476-3.763 22.315-13.438 28.883-3.567 2.482-9.651 4.168-9.651 5.391v90.911c0 86.397-42.575 158.642-115.201 208.859-60.468 41.848-143.126 64.879-228.97 64.879-85.773 0-171.721-23.042-232.19-64.879-72.555-50.241-116.298-122.45-116.298-208.859v-80.094c0-0.069 3.948-0.092 3.809-0.185-12.086-6.396-15.353-18.448-15.353-31.458v-52.815c-34.633 7.041-57.318 13.056-81.815 13.056-52.042 0-70.466-27.799-70.466-51.603 0-43.499 44.075-88.948 117.855-121.607 126.664-56.151 259.077-84.619 393.567-84.619 119.933 0 187.098 11.533 269.143 32.808 89.283 23.17 172.426 77.278 194.475 94.421 35.915 27.799 53 57.422 48.151 83.385zM341.273 183.462c-0.069 0.023-0.161 0.023-0.231 0.046 0.069 0 0.161 0 0.242-0.023l-0.011-0.023zM334.439 161.066v0h-0.069l0.069 0.173v-0.173zM508.92 239.589v0zM531.316 195.305c12.918 7.088 19.96 20.226 18.84 33.848 50.196 14.431 137.99 32.22 256.838 50.553l14.858 2.817v-65.883c-126.987-52.191-255.649-70.235-379.195-54.593 32.416 9.478 67.731 20.872 88.66 33.259zM311.132 590.062c52.747 36.457 123.293 56.544 199.635 56.544 76.353 0 145.978-20.087 198.689-56.532 59.371-41.075 89.26-99.962 89.26-170.301v-94.040c-115.443-16.415-239.162-40.105-293.791-61.958-101.486 15.261-194.221 38.87-279.061 70.339-1.928 0.716-4.352 1.465-4.352 2.228v83.453c0.023 70.316 30.292 129.203 89.618 170.267zM189.489 297.334c0.092-0.023 0.22-0.046 0.277-0.081-0.092 0.011-0.242-0.011-0.277 0v0.081zM198.447 277.859v15.909c11.544-1.339 7.272-2.597 10.344-3.671 81.121-30.096 170.936-53.185 266.719-68.966-37.577-14.188-91.638-27.88-136.141-37.265-46.916 13.576-94.72 32.509-140.898 56.347v37.542l-0.023 0.104zM946.31 174.723c-25.259-19.614-101.889-66.449-177.516-86.063-78.281-20.295-142.504-31.319-257.369-31.319-127.911 0-253.928 27.13-374.544 80.603-71.136 31.504-89.93 65.272-90.195 78.281 0.855 1.108 7.457 5.137 23.851 5.137 30.326 0 75.487-12.468 99.708-19.914l0.335 1.154c0.542-0.311-3.371-0.762-2.817-1.086 45.728-23.92 88.383-43.083 134.56-57.653v-7.977h28.826c65.941-23.089 133.729-27.395 201.598-27.395 103.621 0 211.029 22.732 319.165 66.622 9.489 3.774 16.635 11.095 20.41 19.729 37.992 12.111 69.058 18.874 88.268 18.874 9.963 0 14.592-1.709 16.369-2.69-0.958-4.71-7.261-18.217-30.65-36.306z" />
<glyph unicode="&#xe903;" glyph-name="14" d="M813.889 398.224h-607.743c-16.751 0-30.242-17.421-30.242-34.133 0-16.698 13.489-34.133 30.242-34.133h607.756c16.725 0 30.214 17.435 30.214 34.133-0.013 16.698-13.531 34.133-30.227 34.133zM975.98 560.928c-30.187 27.892-70.341 42.093-112.666 42.093h-16.725c-11.25 40.959-44.769 69.644-85.838 75.092-35.417 102.63-137.337 173.817-252.869 173.817-117.199 0-219.761-72.962-254.003-177.545-33.547-10.117-59.923-44.086-69.658-71.392h-27.497c-88.378 0-156.725-65.167-156.725-148.096v-450.267c0-82.847 68.375-152.561 156.725-152.561h706.577c88.35 0 160.698 69.686 160.698 152.561v450.28c0.055 40.592-17.203 77.509-48.018 106.018zM747.043 635.912c23.525 0 43.786-19.237 54.162-32.89h-108.391c10.391 13.653 30.623 32.89 54.23 32.89zM507.868 792.061c86.205 0 162.404-50.912 192.291-124.244-25.327-12.902-44.688-37.52-52.716-64.826h-264.080c-9.312 27.306-33.888 59.227-65.467 70.26 31.361 70.424 105.689 118.809 189.969 118.809zM283.793 635.912c23.606 0 43.813-19.237 54.217-32.89h-108.378c10.376 13.653 30.651 32.89 54.162 32.89zM969.44 3.088c0-48.987-61.275-82.753-115.765-82.753h-698.863c-54.477 0-100.159 33.765-100.159 82.753v445.408c0 49.042 45.683 86.233 100.159 86.233h698.877c26.775 0 60.347-8.246 79.092-25.545 18.186-16.779 36.673-37.436 36.673-60.688v-445.408h-0.013zM830.56 316.303h-641.057c-5.57 0-10.103-8.083-10.103-13.653 0-5.557 4.533-13.653 10.103-13.653h641.057c5.543 0 10.049 8.096 10.049 13.653 0 5.57-4.505 13.653-10.049 13.653z" />
<glyph unicode="&#xe904;" glyph-name="15" d="M1022.819 9.72l-83.259 559.803c-7.827 52.726-53.903 91.348-107.279 91.348h-64.148c-46.268 96.797-147.243 156.672-260.203 156.672-113.266 0-213.963-59.875-260.148-156.672h-56.073c-4.135 0-8.159 0.872-11.505 0.469-49.077-5.186-88.444-42.398-95.717-91.292l-83.287-560.577c-4.702-31.362 4.536-62.171 25.249-86.121 20.66-24.046 50.721-36.893 82.486-36.893h806.166c31.625 0 61.715 12.928 82.513 36.922 20.66 24.116 29.842 55.049 25.209 86.344zM589.003 278.109v-23.010c0-16.18-24.849-22.859-41.001-22.859h-69.721c-16.151 0-41.402 6.679-41.402 22.859v32.454h152.109v10.372-19.815h0.013zM614.931 319.801c-3.941 12.182-14.852 23.052-28.335 23.052h-146.868c-13.538 0-24.988-13.828-28.873-27.656h-8.049c-61.715 0-187.162 64.328-187.162 145.54v144.85h63.872l8.049-2.212c0.193 0.761 0.483 2.212 0.706 2.212h439.401c0.055 0 0.082-0.248 0.138-0.318l1.135 0.318h67.495v-144.85c-0.013-79.885-118.866-138.973-181.507-140.936zM507.901 758.167c79.055 0 150.463-28.112 191.464-97.253h-382.956c40.862 69.127 112.187 97.253 191.493 97.253zM952.586-39.757c-9.431-10.897-23.121-18.404-37.544-18.404h-806.137c-14.45 0-28.057 7.494-37.515 18.446-9.431 10.91-13.58 25.915-11.477 40.101l81.323 561.199c2.863 19.125 5.268 34.708 32.924 40.046v-140.881c0-107.334 149.731-187.011 228.648-187.011h6.431v-18.625c0-37.985 31.057-64.343 69.058-64.343h69.721c38.001 0 68.657 26.356 68.657 64.343v23.149c69.14 2.697 221.249 77.174 221.249 182.489v142.443c13.828-2.227 40.004-19.138 43.239-41.277l83.134-561.545c2.088-14.2-2.338-29.232-11.711-40.128z" />
<glyph unicode="&#xe905;" glyph-name="16" horiz-adv-x="816" d="M803.435 188.042c-8.56 51.698-27.845 103.87-46.539 154.335-6.774 18.314-13.43 36.391-19.509 54.206-15.071 250.171-133.16 391.589-134.301 392.941l-10.686 8.98-5.054 3.098c-14.795 7.089-52.788 23.578-86.003 23.578-7.536 0-14.283-2.573-20.874-6.852l-1.483 9.15-3.926 12.379-4.648 4.936c-3.019 3.216-6.289 6.289-10.542 10.41l-9.688 8.797h-74.543l-14.586-1.929-7.404-6.617c-3.951-3.636-7.392-6.97-11.028-10.87l-6.669-7.877-3.124-19.509c-5.251 3.741-10.332 6.289-15.846 7.589-7.155 1.641-14.441 2.495-21.543 2.495-46.512 0-82.262-32.427-86.161-36.090l-3.558-3.899c-75.224-83.562-119.611-212.061-125.415-362.286-25.311-62.7-57.79-175.643-67.768-236.085-24.156-136.717-6.642-238.068 53.642-309.878 6.026-7.102 12.8-9.793 21.635-18.104l29.802-20.94h580.28l32.152 22.751c7.207 6.709 13.43 11.093 19.77 18.485 60.285 71.443 77.824 170.431 53.616 306.807zM461.312 732.718c13.181 0 20.848 10.122 33.517 22.606 3.361 3.283 8.797 9.925 12.643 13.233 16.568-1.693 38.019-8.822 53.511-16.004l1.995-1.26c11.409-14.677 92.672-125.52 115.083-311.493-19.77 50.307-41.997 97.123-65.339 137.256-9.57 17.172-30.313 46.645-48.457 71.747l0.183 0.67-6.354 5.251c-32.873 40.16-66.771 64.826-100.128 77.955l3.348 0.040zM635.695 165.316c-31.56 19.181-68.109 29.157-105.156 29.157h-245.275c-38.742 0-76.669-10.843-109.134-31.652-19.024 67.282-28.16 134.709-27.006 200.429 20.533 62.175 43.506 121.739 70.84 172.662 2.206 4.411 5.159 9.112 5.159 13.772v-13.877h7.286l0.354-74.056c0.053-62.385 50.61-109.739 112.772-109.739h126.056c62.096 0 108.032 56.661 108.032 118.851v77.024c26.256-49.073 56.819-107.402 78.258-169.432 2.861-69.605-2.14-141.312-22.187-213.137zM540.201 540.061c-13.128-16.831-67.124-34.226-136.1-34.226-74.11 0-126.464 20.086-139.592 38.006v-1.050 32.415h275.692v-35.144zM411.517 477.544c51.817 0 102.44 10.28 141.824 29.88v-36.601c0-41.918-39.87-79.466-81.775-79.466h-126.056c-41.892 0-76.051 36.024-76.078 78.271l1.313 37.152c33.227-19.718 88.774-29.236 140.774-29.236zM275.129 627.692c6.695 0 11.133 10.673 11.185 10.725 41.261 50.385 82.209 74.87 118.179 74.87l4.174-1.13 2.468-0.511c36.234 0 77.103-26.794 118.311-77.024 0.275-0.406 0.59 3.427 0.802 3.071 3.611-4.923 7.023-10.030 10.332-10.030l-265.452 0.026zM376.95 745.938l10.28 65.549h38.952l10.28-65.326 3.663-1.916c-9.82 2.495-19.614 3.821-29.262 3.821l-2.337-0.197-3.951-0.026c-10.818 0-21.872-1.287-33.031-4.516l5.409 2.613zM246.535 750.493l1.13 1.235c4.279 3.768 28.567 24.221 54.206 19.968 3.716-2.836 10.673-9.543 14.611-13.364 13.614-13.206 21.872-21.15 35.381-21.15l4.596 0.053c-32.821-13.639-66.311-40.514-98.894-80.357-1.876-2.428-45.646-59.483-67.978-104.001-19.154-35.734-37.31-75.79-53.695-117.996 7.089 132.136 46.054 243.779 110.645 315.616zM72.415 179.666c6.97 42.443 23.644 114.556 42.943 172.729 0-70.499 9.583-142.467 31.455-214.252-7.261-7.484-13.404-19.535-23.998-33.793-22.16-33.306-29-71.969-29-111.892v-38.282c-39.359 55.835-38.282 130.061-21.398 225.49zM678.256-120.617h-540.541l-12.853 14.756c-1.916 1.771-4.793 6.892-4.793 8.612v89.665c0 32.637 9.15 64.289 26.767 90.768 14.9 19.968 31.796 36.129 32.019 36.3l-0.183 4.845c29.92 25.193 67.663 43.887 106.588 43.887h245.235c37.362 0 73.951-17.697 103.175-40.986l-1.876-4.502c9.177-8.283 25.824-25.718 31.285-34.199l17.973 10.975-21.070-11.001c20.020-28.226 24.616-61.637 24.616-96.072v-89.718c0-1.208 3.585-5.948 2.311-7.128l-8.652-16.2zM737.124-46.219v38.583c0 41.853-14.716 82.026-38.874 116.33l1.431 1.548c-7.339 11.29-22.463 25.968-31.533 34.579 19.482 66.087 29.644 132.057 30.667 196.805 2.258-6.118 4.332-12.221 6.617-18.367 17.789-48.049 38.019-97.714 45.766-144.568 16.884-95.193 12.183-169.328-14.073-224.912zM527.072 36.922h-26.256v-13.128h-275.692v-26.256h275.692v-13.128h26.256v13.128h65.641v26.256h-65.641zM408.879 541.427h25.311v-25.297h-25.311v25.297z" />
<glyph unicode="&#xe906;" glyph-name="17" d="M1021.676 166.905v293.973h2.325c0 0-2.325 1.416-2.325 2.497v8.315h0.974c-7.158 43.246-41.916 71.582-83.572 71.582-21.288 0-41.58-6.93-57.138-21.093-2.086-1.903-3.838-3.633-5.189-6.001-16.574-22.51-61.971-69.68-150.225-69.68-0.908 0-1.687 0.227-2.573 0.227 8.768 12.292 13.936 25.698 15.039 40.208 4.368 57.798-57.203 103.043-64.23 108.028-8.4 5.957-19.514 6.563-28.553 1.622l-111.638-61.042-490.568-258.522c-2.508-0.974-4.898-2.325-7.071-4.033-23.482-18.639-36.932-43.992-36.932-73.95 0-53.723 43.689-94.935 97.389-94.935h844.003c30.175 0 51.754 5.87 66.37 22.315 14.942 16.921 13.915 33.396 13.915 40.488zM967.619 233.838h-311.509c5.47 21.623 19.601 54.057 56.046 54.057h255.463v-54.057zM656.087 540.472c14.131-13.103 30.175-32.942 28.953-49.365-1.017-13.244-14.639-24.52-28.694-32.737-32.965 11.752-55.181 30.175-68.707 44.661l68.446 37.44zM968.397 162.299c-1.394-1.567-7.438-4.141-27.050-4.141h-844.003c-23.882 0-43.332 16.952-43.332 40.857 0 12.368 5.157 22.683 14.195 30.921l195.557 102.449 62.922-84.913 26.012 19.18-59.927 80.47 55.917 29.418 63.625-85.518 26.012 19.363-60.598 81.442 56.252 29.634 63.647-85.507 25.991 19.363-60.587 81.453 75.831 39.948c25.483-31.137 84.080-84.026 187.632-84.026 112.859 0 172.268 62.63 193.946 92.21 5.276 3.925 10.617 6.087 17.417 6.087 16.39 0 29.711-12.801 29.711-28.91v-141.77h-255.43c-67.236 0-89.389-62.955-91.681-95.334-0.291-4.498 1.244-11.99 4.303-15.309s7.374-8.282 11.871-8.282h330.969v-35.537c0-1.081 1.178-0.908 1.308-1.989 0.021 0.033 0.378-0.541-0.507-1.557zM545.973 233.838h32.434v-32.434h-32.434v32.434zM481.105 233.838h32.434v-32.434h-32.434v32.434z" />
<glyph unicode="&#xe907;" glyph-name="18" d="M485.524 265.866h45.508v-60.677h-45.508v60.677zM485.524 372.050h45.508v-45.508h-45.508v45.508zM485.524 463.065h45.508v-45.508h-45.508v45.508zM992.887 352.102c0 45.796 6.689 121.718 13.774 202.205 8.555 96.25 17.308 195.697 17.308 268.996 0 22.436-18.157 40.653-40.653 40.653-63.529 0-161.354-8.45-255.89-16.596-86.358-7.417-168.045-14.457-215.327-14.457-45.916 0-121.975 6.689-202.539 13.803-96.173 8.511-195.607 17.262-268.873 17.262-22.45 0-40.685-18.173-40.685-40.668 0-63.514 8.45-161.172 16.596-255.631 7.403-86.51 14.487-168.257 14.487-215.767 0-45.826-6.689-121.747-13.774-202.205-8.541-96.25-17.277-195.728-17.277-269.026 0-22.436 18.157-40.639 40.653-40.639 63.543 0 161.354 8.434 255.89 16.58 86.358 7.448 168.045 14.502 215.327 14.502 45.916 0 121.944-6.704 202.539-13.82 96.142-8.511 195.607-17.262 268.873-17.262 22.45 0 40.685 18.142 40.685 40.639 0 63.529-8.48 161.233-16.625 255.692-7.403 86.54-14.487 168.271-14.487 215.735zM721.601-61.682c-82.338 7.266-160.111 14.107-209.607 14.107-50.847 0-134.158-7.176-222.29-14.79-73.678-6.34-149.388-12.895-207.485-15.305 2.337 64.332 9.298 147.9 16.125 224.761 5.749 65.213 11.194 118.744 13.244 179.421h176.782v45.508h-176.145c-0.349 15.169-1.184 30.338-2.427 45.508h72.373v45.508h-75.846c-2.519 30.338-5.507 71.735-8.647 108.11-6.31 73.601-12.895 150.859-15.259 208.91 64.257-2.352 143.243-8.465 220.135-15.23 82.307-7.266 160.111-13.667 209.607-13.667 50.818 0 134.158 7.388 222.29 14.987 73.678 6.34 149.388 12.955 207.454 15.412-2.306-64.347-9.298-146.808-16.125-223.717-2.791-31.613-5.507-64.47-7.827-94.808h-174.521v-45.508h170.972c-1.335-15.169-2.199-30.338-2.548-45.508h-77.424v-45.508h78.061c2.138-60.677 7.888-122.006 13.925-192.573 6.34-73.632 12.924-151.42 15.291-209.532-64.271 2.412-143.259 7.115-220.104 13.91z" />
<glyph unicode="&#xe908;" glyph-name="19" horiz-adv-x="784" d="M779.148-24.4l-192.11 506.72 1.715 9.555c4.385 23.317 8.567 45.331 11.129 68.542 5.489 49.585 2.14 88.85-10.906 127.234-0.718 2.14-1.715 4.125-2.868 5.946 13.385 35.646 43.18 121.182 35.622 158.638l-2.351 11.764-38.701-7.781 2.362-11.776c4.654-23.376-18.71-98.312-37.691-146.862-0.457-0.482-1.034-0.812-1.469-1.328-13.915-16.454-31.591-29.617-50.572-43.626-15.996-11.905-32.567-24.211-47.246-39.089-11.847-11.999-23.165-25.198-33.672-39.124-8.368-11.153-16.031-22.776-23.106-34.611-7.11 11.999-14.761 23.599-23.048 34.66-10.554 13.998-21.873 27.161-33.672 39.089-14.808 14.938-31.309 27.195-47.257 39.042-18.851 13.962-36.586 27.161-50.478 43.602-0.247 0.258-0.505 0.588-0.752 0.859l2.48 6.334-4.596-2.304c-18.757 48.55-40.923 120.501-36.339 143.336l2.339 11.776-38.701 7.781-2.339-11.776c-7.616-37.855 22.225-123.133 35.622-158.684-1.175-1.751-2.162-3.678-2.821-5.759-13.058-38.408-16.407-77.638-10.976-127.305 2.667-24.54 7.322-49.35 11.941-73.818l2.187-11.612c0.117-0.658 0.41-1.234 0.6-1.857l-188.561-497.305c-5.277-13.479-0.671-28.877 10.929-35.893 101.531-59.010 213.946-92.306 334.178-98.84 13.915-0.741 28.030-1.128 41.934-1.128 133.629 0 263.438 34.47 375.383 99.651l0.846 0.482c11.482 6.875 16.172 22.178 10.965 35.469zM260.171 208.48l-0.647 0.083c0.094 8.473-12.881 11.87-14.092 2.902-0.047-0.329-0.094-0.658-0.141-0.964l-0.435 0.058-41.522-306.289c-18.569 5.018-36.891 10.647-54.886 17.147l152.655 558.419c24.199 2.456 53.757 9.872 87.981 9.872h3.009c32.625 0 64.358-7.181 91.33-9.907l152.55-555.211c-17.993-6.5-36.316-13.586-54.839-18.616l-41.475 305.3-0.457-0.376c-0.047 0.282-0.094 0.457-0.141 0.765-1.234 8.956-14.162 5.489-14.068-2.986l-0.647-0.141 41.734-307.839c-56.401-13.962-114.977-21.202-174.398-21.202-13.127 0-26.421 0.352-39.549 1.046-45.905 2.503-90.507 9.32-133.734 19.897l41.77 308.038zM557.678 653.579c5.899-26.407 6.794-54.628 3.009-88.886-2.021-18.111-5.23-36.245-8.791-55.52-34.801 10.613-88.792 14.314-125.425 15.502 5.466 8.838 11.248 17.559 17.535 25.938 9.508 12.576 19.675 24.423 30.205 35.141 12.646 12.834 28.030 24.223 42.921 35.258 13.693 10.201 27.666 20.568 40.547 32.567zM231.141 460.482c7.945 3.831 26.255 8.285 53.44 11.8l-150.587-545.279c-30.662 11.847-60.574 25.621-89.426 41.852l186.574 491.628zM551.544 461.128c0.482-0.235 0.987-0.271 1.469-0.457l186.339-491.605c-28.511-16.055-58.235-29.97-88.897-41.817l-150.481 545.055c22.977-2.915 41.157-6.747 51.571-11.177zM306.652 521.878c-25.209-2.304-57.565-6.559-79.672-13.986-3.608 19.344-6.888 38.043-8.909 56.836-3.761 34.271-2.891 62.513 3.033 88.886 12.986-12.105 27.043-22.53 40.771-32.719 14.808-11.012 30.122-22.342 42.697-35.059 10.53-10.694 20.732-22.518 30.181-35.047 6.24-8.379 12.046-17.159 17.582-26.172-15.819-0.588-31.215-1.48-45.683-2.738z" />
<glyph unicode="&#xe909;" glyph-name="20" d="M1008.13 419.305l-12.902 32.806c-1.691 5.742-6.426 9.021-10.188 11.29v299.937h-52.448v-274.461c-0.748-0.38-1.561-0.853-2.23-1.416-7.579-1.98-10.882-4.131-23.994-6.491v190.582h-0.537c0 26.224-32.348 26.224-32.348 0h-6.451v-200.993c-39.336-16.613-106.838-40.437-159.704-76.521-57.798-39.533-97.029-92.793-136.364-144.324l-15.262-18.972c-9.27-12.246-16.469-24.743-29.581-36.884 0 39.034 0 84.362 0 110.586s-26.224 26.224-26.224 0 0-72.011 0-111.242c-13.112 15.8-27.142 32.217-39.414 48.226l-2.95 2.845c-40.897 53.524-80.717 108.882-140.6 149.817-49.472 33.816-118.704 57.247-158.040 73.401v204.062h-6.478c0 26.224-32.348 26.224-32.348 0h-0.432v-193.952c-13.112 5.087-34.156 9.153-46.836 12.378-1.691 0.432-3.252 0.734-5.612 0.892v272.467h-52.448v-305.943c0-3.619 1.076-6.556 2.255-9.493l-1.717-28.637c-14.083-96.334-30.065-205.53 10.607-309.916 28.559-73.427 82.645-129.887 148.375-154.931 23.379-8.943 49.655-13.649 75.932-13.649 53.274 0 105.328 18.331 146.566 51.99 0.485 0.406 23.327 23.182 48.422 49.406h135.236c25.123-26.224 47.964-49.012 48.475-49.433 41.184-33.619 93.16-52.068 146.434-52.068 26.459 0 51.911 4.655 75.657 13.702 65.298 24.86 119.136 81.359 147.785 154.957 39.703 101.986 24.297 207.642 9.361 309.981zM593.358 123c-7.066 9.835-12.627 18.487-15.852 24.913h15.852v-24.913zM445.902 147.927c-2.020-4.248-4.917-9.375-8.628-15.184v15.184h8.628zM361.184 39.62c-30.472-24.913-70.124-38.64-109.301-38.64-19.053 0-37.972 3.279-54.913 9.755-49.38 18.829-90.892 62.74-113.367 120.512-33.449 85.738-20.494 174.993-6.713 269.491l4.169 22.947c79.748-20.691 141.95-46.784 189.691-79.406 53.851-36.792 96.032-85.163 133.598-134.359 6.661-8.706 13.649-23.509 20.744-23.509h-17.006v-99.796c-26.211-18.934-34.484-36.831-46.901-46.993zM473.2 81.514c18.082 13.112 33.015 39.336 36.701 65.56h5.808c3.659-26.224 18.645-52.448 36.779-65.56h-79.288zM942.701 131.247c-22.513-57.745-63.738-101.696-113.116-120.512-16.98-6.478-35.245-9.728-54.296-9.728-39.205 0-75.774 13.702-106.272 38.588-11.092 9.061-24.848 24.152-37.959 40.595v106.233h-33.724c6.883 0 13.57 15.367 19.825 23.562 4.97 6.478 9.835 11.801 14.646 18.212 33.501 44.384 65.127 85.765 110.376 116.644 53.812 36.806 116.264 63.33 190.399 82.003v-17.518h15.132l1.429-8.312c13.873-94.603 26.958-183.947-6.438-269.766z" />
<glyph unicode="&#xe90a;" glyph-name="21" d="M511.364 228.689c-29.239 0-53.082-23.746-53.082-52.929 0-29.212 23.828-52.971 53.082-52.971 29.197 0 52.956 23.759 52.956 52.971 0 29.184-23.773 52.929-52.956 52.929zM511.364 160.58c-8.413 0-15.277 6.795-15.277 15.153s6.877 15.139 15.277 15.139c8.345 0 15.153-6.781 15.153-15.139 0-8.22-6.919-15.153-15.153-15.153zM891.324 780.973h-759.947c-70.407 0-131.377-53.968-131.377-124.403v-473.656c0-70.38 60.984-121.51 131.377-121.51h214.569v-69.189h-110.703v-69.189h539.676v69.189h-96.865v69.189h213.269c70.407 0 132.677 51.103 132.677 121.51v473.656c0 70.435-62.284 124.403-132.677 124.403zM131.377 725.622h759.947c39.119 0 77.326-29.905 77.326-69.023v-373.788h-913.299v373.788c0 39.105 36.906 69.023 76.026 69.023zM622.704-7.785h-221.405v69.189h221.405v-69.189zM891.324 116.755h-759.947c-39.119 0-76.026 27.082-76.026 66.158v58.382h913.299v-58.382c0-39.078-38.207-66.158-77.326-66.158z" />
<glyph unicode="&#xe90b;" glyph-name="22" d="M156.612 568.847h734.871v-361.411h-240.941v-24.094h249.638c9.709 0 27.444 1.253 27.444 10.962v402.818c0 9.698-17.758 7.868-27.444 7.868h-751.737c-9.722 0-40.020 1.831-40.020-7.868v-402.818c0-9.722 30.322-10.962 40.008-10.962h237.074v24.094h-228.894v361.411zM998.293 159.246h-10.433v486.835c0 26.154-16.301 43.237-42.454 43.237h-842.258c-26.143 0-54.959-17.082-54.959-43.237v-486.835h-11.565c-12.939 0-36.623-11.53-36.623-24.443v-54.778c0-44.454 45.96-65.343 110.676-65.343h813.526c64.73 0 99.798 20.889 99.798 65.343v54.778c0 12.914-12.77 24.443-25.708 24.443zM96.377 644.020l843.294 2.060v-486.835h-285.443c-12.939 0-23.383-6.24-23.383-19.155 0-5.083-4.168-4.939-9.229-4.939h-194.379c-5.083 0-9.204-0.145-9.204 4.939 0 12.914-10.493 19.155-23.407 19.155h-298.25v484.774zM924.203 62.87h-813.526c-50.669 0-62.488 10.095-62.488 17.13v31.058h328.174c8.842-12.047 28.359-36.141 50.898-36.141h194.404c22.54 0 41.997 24.094 50.91 36.141h291.189v-31.058c0-7.035 11.12-17.13-39.562-17.13zM511.422 207.435h24.094v-24.094h-24.094v24.094z" />
<glyph unicode="&#xe90c;" glyph-name="23" d="M1022.62 114.556l-61.321 389.768c-19.086 121.946-122.534 208.91-246.026 208.91h-406.613c-123.41 0-226.904-86.976-246.015-208.922l-61.273-390.512c-0.612-3.944-1.019-7.504-1.222-11.413-1.414-27.251 7.216-52.868 24.913-73.548 20.44-23.906 51.358-38.075 82.636-38.075 27.909 0 54.463 11.281 74.808 31.637l0.023 0.048v0.708l149.915 150.599h359.198l149.927-150.611c20.344-20.344 46.922-31.926 74.808-31.926 31.302 0 62.173 14.11 82.54 37.992 20.236 23.63 28.64 53.84 23.701 85.346zM912.422 478.466c3.321-24.913 1.991-48.121-3.98-68.994-10.442-36.48-32.081-62.759-68.19-87.145-29.839-20.104-65.852-28.688-104.156-28.688h-362.388l-69.282-73.393-158.847-159.842c-13.463-13.463-28.076-16.807-37.931-16.807-10.153 0-20.236 2.649-28.976 7.864-1.067 0.636-2.062 1.247-3.082 1.943-0.648 0.443-1.318 0.767-1.954 1.247-3.261 2.446-6.257 5.214-8.931 8.321-7.145 8.38-14.986 22.718-11.737 43.506l61.237 391.83c15.153 96.423 96.915 166.975 194.512 166.975h406.649c18.282 0 36.013-3.057 52.845-7.684 73.022-20.081 129.295-81.245 141.596-159.566l0.167-1.187 2.446-18.378zM959.334 62.958c-10.657-12.455-26.734-19.877-42.967-19.877-9.878 0-24.468 1.391-37.931 14.877l-165.201 163.75h-329.897l12.395 11.988h340.257c48.709 0 94.853 15.549 133.371 41.516 27.669 18.702 49.105 41.012 64.905 65.481l36.828-234.651c3.274-20.799-4.58-34.707-11.76-43.087zM644.541 509.803c-16.065 0-29.156-13.068-29.156-29.131s13.091-29.131 29.156-29.131c16.040 0 29.108 13.068 29.108 29.131s-13.068 29.131-29.108 29.131zM641.052 480.696c0 1.918 1.546 3.489 3.489 3.489s3.489-1.57 3.489-3.489c0-3.86-6.978-3.812-6.978 0zM782.036 509.803c-16.040 0-29.108-13.068-29.108-29.131s13.068-29.131 29.108-29.131c16.065 0 29.131 13.068 29.131 29.131s-13.080 29.131-29.131 29.131zM778.56 480.696c0 1.918 1.546 3.489 3.464 3.489 1.943 0 3.512-1.57 3.512-3.489 0.012-3.812-6.978-3.86-6.978 0zM713.282 584.637c-16.088 0-29.179-13.068-29.179-29.168 0-16.076 13.091-29.143 29.179-29.143s29.156 13.068 29.179 29.143c0 16.1-13.091 29.168-29.179 29.168zM709.818 555.468c0 1.918 1.57 3.477 3.464 3.477s3.441-1.558 3.441-3.477c0-3.8-6.905-3.777-6.905 0zM713.282 435.068c-16.088 0-29.179-13.091-29.179-29.191 0-16.065 13.091-29.156 29.179-29.156s29.156 13.091 29.179 29.156c0 16.112-13.091 29.191-29.179 29.191zM709.818 405.887c0 1.918 1.57 3.464 3.464 3.464s3.441-1.57 3.441-3.464c0-3.8-6.905-3.764-6.905 0zM383.899 509.432h-63.155v56.753c0 14.422-9.567 26.111-23.977 26.111-14.422 0-23.977-11.689-23.977-26.111v-56.753h-59.906c-14.41 0-26.087-15.549-26.087-29.971 0-14.398 11.677-29.971 26.087-29.971h59.906v-54.307c0-14.422 9.554-26.099 23.977-26.099 14.398 0 23.977 11.677 23.977 26.099v54.307h63.155c14.422 0 26.087 15.573 26.087 29.971 0 14.422-11.689 29.971-26.087 29.971z" />
<glyph unicode="&#xe90d;" glyph-name="24" d="M996.701 279.416h-301.3v334.375c0 15.014-10.287 27.148-25.277 27.148-15.027 0-25.277-12.146-25.277-27.148v-334.375h-632.716c-15.014 0-11.854-18.806-11.854-33.82v-257.091c0-15.014-3.134-25.050 11.854-25.050h89.265v-37.915h63.192v37.915h720.389v-37.915h63.192v37.915h48.531c14.99 0 27.299 10.072 27.299 25.050v257.091c0 15.014-12.347 33.82-27.299 33.82zM960.807 26.649h-897.326v189.576h595.193c0.291 0 0.593-0.089 0.885-0.089 0.265 0 0.593 0.089 0.835 0.089h300.415v-189.576zM682.762 178.309h25.277v-50.554h-25.277v50.554zM771.231 178.309h50.554v-50.554h-50.554v50.554zM847.061 178.309h63.192v-50.554h-63.192v50.554zM682.762 115.117h25.277v-63.192h-25.277v63.192zM771.231 115.117h50.554v-63.192h-50.554v63.192zM847.061 115.117h63.192v-63.192h-63.192v63.192zM189.865 153.032h50.554v-37.915h-50.554v37.915zM265.696 153.032h50.554v-37.915h-50.554v37.915zM354.164 153.032h50.554v-37.915h-50.554v37.915zM511.804 530.528c3.956-3.956 9.213-5.979 14.445-5.979 5.181 0 10.388 1.997 14.42 5.979 7.949 7.949 7.949 20.854 0 28.803-32.267 32.267-32.267 84.74 0 116.994 7.949 7.949 7.949 20.842 0 28.816-7.974 7.949-20.854 7.949-28.828-0.025-48.178-48.115-48.178-126.422-0.038-174.586zM784.781 530.528c3.956-3.956 9.213-5.979 14.42-5.979 5.232 0 10.414 1.997 14.42 5.979 48.165 48.139 48.165 126.473 0 174.612-7.923 7.949-20.828 7.949-28.777 0-8-7.949-8-20.842 0-28.816 32.241-32.279 32.241-84.74 0-116.994-8.038-7.949-8.038-20.842-0.063-28.803zM444.454 463.178c3.968-3.956 9.213-5.991 14.42-5.991 5.232 0 10.414 1.997 14.42 5.991 7.974 7.949 7.974 20.842 0 28.816-33.593 33.593-52.108 78.295-52.108 125.815 0 47.571 18.49 92.26 52.108 125.866 7.974 7.974 7.974 20.828 0 28.803-7.949 7.974-20.828 7.974-28.803 0-41.328-41.328-64.027-96.242-64.027-154.668-0.089-58.402 22.674-113.329 63.988-154.63zM904.251 617.822c0-47.534-18.516-92.236-52.158-125.854-7.949-7.949-7.949-20.842 0-28.791 3.994-3.956 9.225-5.991 14.445-5.991 5.232 0 10.439 1.997 14.445 5.991 41.34 41.34 64.077 96.242 64.077 154.63 0 58.452-22.761 113.392-64.077 154.668-7.974 7.974-20.828 7.974-28.828 0-7.949-7.974-7.949-20.828 0-28.803 33.581-33.606 52.095-78.295 52.095-125.854z" />
<glyph unicode="&#xe90e;" glyph-name="25" d="M512.020 686.385c-39.807 0-72.184-32.405-72.184-72.21 0-39.819 32.379-72.197 72.184-72.197s72.21 32.392 72.21 72.197c0.025 39.795-32.405 72.21-72.21 72.21zM512.020 578.384c-19.689 0-35.777 16.039-35.777 35.765s16.051 35.789 35.777 35.789 35.803-16.051 35.803-35.789c0-19.703-16.064-35.765-35.803-35.765zM689.008 748.46h-353.925c-7.503 0-14.237-7.968-16.97-14.956-0.856-2.216-21.288-56.852-21.288-118.713 0-61.976 20.532-115.165 21.389-117.303 2.782-6.861 9.467-13.395 16.869-13.395h353.913c7.402 0 14.087 5.678 16.894 12.577 0.856 2.141 21.339 53.881 21.339 115.843 0 61.861-20.382 118.487-21.262 120.715-2.719 6.975-9.467 15.232-16.956 15.232zM676.065 521.859h-328.068c-5.526 12.589-14.704 54.661-14.704 93.41 0 38.824 9.316 70.246 14.881 95.424h327.83c5.513-25.178 14.83-56.399 14.83-95.424-0.063-38.548-9.278-80.821-14.768-93.41zM988.411 802.215c-4.469 11.33-15.862 9.189-22.648 9.189h-907.489c-6.81 0-18.191 2.141-22.698-9.302-3.638-9.302-35.576-92.844-35.576-192.8 0-103.205 34.329-185.637 35.777-189.249 3.714-9.102 12.539-11.469 22.497-11.469h222.598v-92.491c0-13.282 19.739-33.399 33.563-33.399h20.847c-19.652 0-23.58-11.858-24.221-18.531l-31.221-339.512c-0.566-6.357 1.422-16.152 6.27-21.439 4.772-5.262 10.65-10.776 17.951-10.776h415.977c7.402 0 13.004 6.206 17.084 10.752l0.806 0.92c5.060 5.539 6.81 14.502 6.244 20.481l-31.372 338.618c-1.057 11.519-10.297 19.45-24.195 19.45h28.123c4.23 0 12.438 1.196 15.246 14.313 1.322 6.407 2.040 13.029 2.040 19.123v92.505h231.712c9.568 0 18.619 3.462 22.547 13.155 3.638 9.026 35.727 88.462 35.727 188.608 0.038 100.234-31.926 182.465-35.588 191.857zM208.978 446.325c-8.774 25.178-28.477 87.342-28.477 161.907 0 74.702 19.84 152.818 28.616 165.407h605.769c8.75-12.589 28.59-90.703 28.59-165.407 0-74.376-19.677-136.73-28.501-161.907h-605.995zM634.964 207.134c10.059 0 10.991 12.514 10.991 22.597v15.169h26.034l28.060-302.135h-376.020l27.909 302.135h29.647v-15.169c0-10.083 9.908-22.597 19.991-22.597h233.387zM419.351 244.901v20.608c0 0 0 0 0 0.012v67.503h188.834v-67.503c0 0 0 0 0-0.012v-20.608h-188.834zM696.31 333.024h-50.356v15.876c0 10.071-0.932 21.891-10.991 21.891h-233.387c-10.083 0-19.991-11.82-19.991-21.891v-15.876h-50.356v75.534h365.080v-75.534zM42.54 608.231c0 74.702 19.84 152.818 28.616 165.407h99.628c-10.424-25.178-26.751-94.127-26.751-165.407 0-70.548 16.001-136.73 26.487-161.907h-99.503c-8.75 25.178-28.477 87.532-28.477 161.907zM853.496 446.325c10.448 25.178 26.487 91.359 26.487 161.907 0 71.279-16.328 140.227-26.751 165.407h99.654c8.774-12.589 28.59-90.489 28.59-165.407 0-74.35-19.677-136.73-28.501-161.907h-99.477z" />
<glyph unicode="&#xe90f;" glyph-name="26" d="M886.358 503.199v96.537h-42.905v-96.537h-65.173c-53.503 0-70.89 17.849-94.971 41.757-30.463 30.248-65.013 64.862-170.056 64.895-105.236 0-139.153-34.699-169.090-64.981-23.694-23.909-40.792-41.651-95.175-41.651h-70.579v96.537h-42.905v-96.537h-53.632v-117.99h61.784l51.198-53.632h96.034l-48.119-87.667v-205.27c0-10.984 10.501-19.93 21.453-19.93 10.973 0 21.453 8.945 21.453 19.93v195.895l46.573 92.621 29.519-58.329c13.848-27.782 41.939-44.536 73.014-44.536h54.725v-10.919c-42.905-9.353-74.753-48.397-74.753-94.488 0-53.278 44.332-96.644 97.63-96.644 53.321 0 96.709 43.355 96.709 96.644 0 46.091-33.744 85.135-76.651 94.488v10.919h59.564c31.063 0 58.931 16.766 72.778 44.536l27.492 58.823 43.999-89.264v-199.745c0-10.984 10.501-19.93 21.453-19.93 10.973 0 21.453 8.945 21.453 19.93v209.421l-42.756 83.461h95.464l51.218 53.632h67.672v117.99l-64.422 0.032zM513.35 47.577c-39.366 0-71.352 31.986-71.352 71.331s32.007 71.352 71.352 71.352 71.331-32.007 71.331-71.352-31.986-71.331-71.331-71.331zM591.932 267.22h-157.162c-15.843 0-30.066 9.268-37.082 23.448l-30.859 62.362h293.021l-30.859-62.362c-7.016-14.18-21.238-23.448-37.060-23.448zM736.19 374.483v0h-525.29l-51.198 42.905h-45.63v42.905h134.916c71.019 0 97.685 29.057 123.545 55.165 25.647 25.893 52.099 53.76 140.826 53.76 88.536-0.010 115.619-28.522 141.898-54.598 26.129-25.925 53.128-54.308 123.085-54.308h129.51v-42.905h-40.792l-51.198-42.905-79.675-0.021zM849.053 685.269h29.143v-30.591h-29.143v30.591zM1010.237 625.254c-4.376 0.837-9.697 1.845-15.843 2.811-3.057 0.537-6.307 1.083-9.718 1.63-3.432 0.525-7.036-0.204-10.812 0.021-30.066 0-70.182 0-110.277 0-40.116 0-80.222 0-110.299 0-3.776-0.225-7.38 0.525-10.79-0.139-3.41-0.58-6.683-1.116-9.74-1.62-6.072-0.966-11.413-1.984-15.843-2.789-8.753-1.652-13.762-2.757-13.762-2.757s5.009-1.116 13.762-2.757c4.397-0.805 9.718-1.814 15.843-2.811 3.057-0.503 6.329-1.030 9.74-1.576 3.41-0.676 7.016 0.118 10.79-0.161 30.109 0 70.182 0 110.299 0 40.094 0 80.233 0 110.277 0 3.776 0.225 7.38-0.503 10.812 0.043 3.41 0.58 6.661 1.116 9.718 1.587 6.115 0.966 11.413 1.996 15.843 2.811 8.753 1.673 13.762 2.864 13.762 2.864s-4.977 1.158-13.762 2.843zM145.844 685.269h29.143v-30.591h-29.143v30.591zM270.71 615.128c3.776 0.225 7.38-0.503 10.812 0.043 3.39 0.58 6.661 1.116 9.718 1.587 6.093 0.966 11.413 1.996 15.822 2.811 8.774 1.673 13.805 2.864 13.805 2.864s-5.031 1.136-13.805 2.843c-4.376 0.815-9.697 1.845-15.822 2.811-3.057 0.525-6.329 1.073-9.718 1.609-3.432 0.525-7.036-0.193-10.812 0.021-30.087 0-70.182 0-110.277 0-40.116 0-80.222 0-110.299 0-3.776-0.225-7.38 0.547-10.812-0.129-3.41-0.58-6.661-1.116-9.718-1.609-6.093-0.966-11.402-1.996-15.822-2.8-8.774-1.642-13.783-2.757-13.783-2.757s5.009-1.116 13.783-2.757c4.376-0.805 9.675-1.814 15.822-2.8 3.057-0.503 6.307-1.052 9.718-1.587 3.432-0.676 7.036 0.107 10.812-0.172 30.087 0 70.182 0 110.299 0 40.094 0.021 80.19 0.021 110.277 0.021zM530.888 118.928c0-9.643-7.852-17.537-17.537-17.537s-17.559 7.862-17.559 17.537c0 9.675 7.852 17.548 17.559 17.548v14.567c-17.699 0-32.115-14.416-32.115-32.115 0-17.677 14.416-32.115 32.115-32.115 17.655 0 32.093 14.427 32.093 32.115h-14.556z" />
<glyph unicode="&#xe910;" glyph-name="27" d="M198.702-51.918c-48.774 0-90.26 40.774-90.26 89.58s41.302 89.563 86.674 89.563v17.271c-45.372 0-103.963-47.444-103.963-105.732 0-58.318 48.351-107.939 106.625-107.939 58.303 0 106.671 43.075 106.671 103.571h-17.256c0.075-45.372-39.654-86.313-88.491-86.313zM198.762 773.202c-58.289 0-107.608-48.487-107.608-106.806 0-58.303 58.591-106.836 103.963-106.836v17.286c-45.372 0-86.674 40.547-86.674 89.322-0.060 48.789 41.984 89.791 90.729 89.791 48.835 0 88.097-40.971 88.097-86.342h17.256c-0.015 60.481-47.444 103.585-105.762 103.585zM830.325 144.497v-17.286c45.372 0 85.965-39.7 85.965-88.506s-40.925-90.669-89.67-90.669c-48.804 0-89.776 40.971-89.776 86.342h-17.256c0-60.496 47.413-103.571 105.747-103.571 58.289 0 108.243 48.518 108.243 106.821s-42.754 106.867-103.25 106.867zM825.379 755.946c48.774 0 90.911-40.774 90.911-89.549s-40.593-89.549-85.965-89.549v-17.271c60.496 0 103.267 47.444 103.267 105.747 0 58.289-48.699 107.894-106.973 107.894-58.334 0-107.017-43.134-107.017-103.63h17.286c-0.046 45.387 39.654 86.357 88.491 86.357zM825.379 237.375c-37.13 0-72.898-10.315-104.326-29.9-36.388 55.096-54.795 103.646-54.795 144.495 0 41.001 18.376 89.609 54.674 144.631 31.458-19.646 67.257-29.931 104.445-29.931 109.498 0 198.623 89.111 198.623 198.652 0 109.527-89.125 198.638-198.623 198.638-109.56 0-198.714-89.111-198.714-198.638 0-37.145 10.315-72.883 29.9-104.31-54.507-35.89-104.249-54.795-144.51-54.795-40.411 0-90.185 18.844-144.631 54.674 19.646 31.518 29.945 67.288 29.945 104.431 0 109.527-89.171 198.638-198.714 198.638-109.498 0-198.652-89.111-198.652-198.638 0-109.543 89.156-198.652 198.652-198.652 37.1 0 72.867 10.299 104.326 29.885 36.327-55.051 54.764-103.6 54.795-144.481 0-41.001-18.406-89.609-54.703-144.631-31.458 19.615-67.257 29.931-104.416 29.931-109.527 0-198.652-89.125-198.652-198.652 0-109.543 89.125-198.683 198.652-198.683s198.683 89.141 198.683 198.683c0 37.1-10.315 72.867-29.9 104.295 55.096 36.358 103.63 54.795 144.481 54.795 41.001 0 89.655-18.391 144.631-54.674-19.615-31.458-29.931-67.242-29.931-104.416 0-109.543 89.156-198.683 198.714-198.683 109.467 0 198.623 89.141 198.623 198.683 0.046 109.527-89.111 198.652-198.577 198.652zM825.379 814.266c82.122 0 148.942-66.817 148.942-148.957s-66.817-148.987-148.942-148.987c-33.001 0-63.354 10.889-88.051 29.068 13.883 17.907 27.495 33.757 39.201 46.688 37.311 33.832 60.844 60.723 61.858 61.858 5.989 6.836 5.611 17.15-0.803 23.593-6.413 6.413-16.697 6.79-23.579 0.847-1.12-0.984-28.041-24.501-61.979-61.781-12.917-11.692-28.765-25.318-46.703-39.172-18.134 24.682-28.978 55.020-28.978 87.915 0 82.108 66.848 148.926 149.032 148.926zM318.695 577.302c-17.938 13.854-33.757 27.48-46.703 39.172-33.847 37.342-60.738 60.844-61.887 61.873-6.821 5.989-17.135 5.626-23.579-0.817-6.413-6.413-6.79-16.697-0.832-23.564 0.953-1.135 24.486-28.041 61.797-61.948 11.661-12.917 25.318-28.811 39.172-46.718-24.697-18.103-55.035-28.978-87.93-28.978-82.122 0-148.942 66.833-148.942 148.987 0 82.137 66.817 148.957 148.942 148.957 82.183 0 149.001-66.817 149.001-148.957 0-32.941-10.875-63.339-29.038-88.007zM198.702-110.235c-82.122 0-148.942 66.817-148.942 149.001 0 82.153 66.817 148.972 148.942 148.972 33.001 0 63.354-10.875 88.022-29.053-13.854-17.922-27.495-33.771-39.201-46.688-37.311-33.847-60.844-60.767-61.827-61.858-5.989-6.852-5.642-17.165 0.772-23.61 3.373-3.373 7.804-5.051 12.235-5.051 4.084 0 8.090 1.391 11.344 4.22 1.149 0.999 28.055 24.501 62.008 61.797 12.917 11.676 28.736 25.318 46.703 39.172 18.103-24.666 28.947-55.020 28.947-87.915 0-82.183-66.817-148.987-149.001-148.987zM511.935 247.522c-53.282 0-108.561-23.199-158.772-54.432 31.247 50.181 54.386 105.475 54.386 158.998 0 53.297-23.185 108.575-54.476 158.802 50.181-31.201 105.52-54.371 159.073-54.356 53.251 0.015 108.53 23.17 158.772 54.461-31.216-50.212-54.417-105.505-54.386-159.029 0-53.326 23.185-108.605 54.476-158.802-50.197 31.216-105.52 54.356-159.073 54.356zM825.379-110.235c-82.183 0-149.032 66.817-149.032 149.001 0 32.941 10.875 63.339 29.068 87.991 17.938-13.854 33.726-27.465 46.673-39.172 33.878-37.326 60.767-60.828 61.887-61.858 6.821-5.989 17.165-5.642 23.61 0.803 6.413 6.413 6.759 16.697 0.803 23.593-0.953 1.105-24.455 28.041-61.766 61.963-11.661 12.917-25.318 28.781-39.172 46.673 24.666 18.134 55.035 29.007 87.93 29.007 82.122 0 148.942-66.848 148.942-148.987 0-82.214-66.817-149.018-148.942-149.018z" />
<glyph unicode="&#xe911;" glyph-name="28" d="M419.325 692.761c-14.627 14.627-22.681 34.082-22.681 54.852 0 20.725 8.053 40.21 22.681 54.837l-12.364 12.379c-17.912-17.912-27.755-41.77-27.755-67.187s9.858-49.289 27.755-67.187l12.364 12.303zM376.744 650.213c-53.676 53.722-53.676 141.052 0 194.759l-12.334 12.379c-60.539-60.493-60.539-158.934 0-219.472l12.334 12.334zM630.481 680.427c37.047 37.047 37.047 97.311 0 134.358l-12.425-12.364c30.261-30.247 30.261-79.428 0-109.675l12.425-12.318zM672.986 637.864c29.283 29.283 45.439 68.242 45.439 109.767 0 41.495-16.156 80.484-45.439 109.751l-12.364-12.379c25.967-25.952 40.271-60.569 40.271-97.372 0-36.833-14.305-71.436-40.271-97.387l12.364-12.379zM733.937 325.101c-93.169 0-168.991-75.823-168.991-169.053 0-93.2 75.823-169.021 168.991-169.021 93.2 0 169.053 75.823 169.053 169.021-0.030 93.23-75.853 169.053-169.053 169.053zM733.937 21.996c-73.911 0-134.038 60.186-134.038 134.052 0 73.911 60.156 134.084 134.038 134.084 73.941 0 134.084-60.186 134.084-134.084 0.015-73.88-60.14-134.052-134.084-134.052zM303.459 325.101c-93.2 0-169.021-75.823-169.021-169.053 0-93.2 75.823-169.021 169.021-169.021 93.23 0 169.021 75.823 169.021 169.021 0 93.23-75.823 169.053-169.021 169.053zM303.459 21.996c-73.941 0-134.038 60.186-134.038 134.052 0 73.911 60.125 134.084 134.038 134.084 73.941 0 134.084-60.186 134.084-134.084 0.015-73.88-60.14-134.052-134.084-134.052zM366.565 167.573h-60.89v51.582c0 4.798-2.888 8.742-7.642 8.742-4.798 0-7.642-3.913-7.642-8.742v-51.582h-50.024c-4.798 0-8.712-2.843-8.712-7.642 0-4.783 3.944-7.642 8.712-7.642h50.024v-59.315c0-4.798 2.843-8.712 7.642-8.712 4.783 0 7.642 3.913 7.642 8.712v59.315h60.89c4.798 0 8.712 2.873 8.712 7.642 0.046 4.83-3.868 7.642-8.712 7.642zM733.937 206.102c-27.557 0-49.978-22.453-49.978-49.993 0-27.618 22.453-49.993 49.978-49.993 27.618 0 50.024 22.421 50.024 49.993 0.046 27.557-22.436 49.993-50.024 49.993zM733.937 123.51c-17.912 0-32.538 14.566-32.538 32.538s14.627 32.568 32.538 32.568c17.973 0 32.568-14.596 32.568-32.568 0-17.944-14.627-32.538-32.568-32.538zM936.902 457.961h-63.885c-3.944 76.418-61.638 137.552-132.096 137.552h-190.709v-61.134h190.724c43.911 0 80.055-30.567 83.907-76.418h-211.143c-9.552 30.567-32.922 54.228-63.489 63.672v147.457c30.567 13.053 52.988 43.818 52.988 78.541 0 46.921-37.888 85.099-84.839 85.099-46.89 0-91.045-38.179-91.045-85.099 0-34.694 15.91-65.445 46.477-78.541v-73.574h-177.319c-70.366 0-128.152-61.134-132.096-137.552h-63.917c-54.609 0-100.46-40.762-100.46-95.432v-414.751c0-54.685 45.851-101.162 100.475-101.162h836.424c54.685 0 87.101 46.477 87.101 101.162v414.751c0 54.639-32.416 95.432-87.101 95.432zM518.713 782.522c19.257 0 34.923-15.619 34.923-34.908 0-19.274-15.665-34.939-34.923-34.939s-34.923 15.635-34.923 34.939c-0.030 19.257 15.68 34.908 34.923 34.908zM296.475 534.378h177.319v-12.731c-30.567-9.43-40.563-33.12-50.115-63.687h-211.143c3.851 45.851 40.028 76.418 83.937 76.418zM978.153-52.251c0-26.977-14.274-39.997-41.251-39.997h-836.394c-27.006 0-54.654 12.992-54.654 39.967v414.781c0 27.006 27.648 49.61 54.654 49.61h350.773c9.704 0 17.514 7.52 17.514 17.132 0 32.845 25.049 47.409 49.917 47.409 24.835 0 49.993-14.472 49.993-47.333 0-9.628 7.794-17.209 17.438-17.209h350.805c27.021 0 41.204-22.635 41.204-49.595v-414.766z" />
<glyph unicode="&#xe912;" glyph-name="29" horiz-adv-x="976" d="M222.171 792.034v14.393h100.752v-14.393h28.786v71.966h-158.324v-71.966h13.587zM312.646 645.872l-181.77-300.025h114.857l-16.869-222.013 181.008 322.765h-114.208l16.984 199.274zM379.661 432.205l-126.386-226.606 11.83 154.641h-102.868l125.637 208.47-11.745-136.504h103.529zM776.176 144.343h-78.989v150.452c0 4.951-2.245 8.938-7.197 8.938-4.979 0-7.197-3.987-7.197-8.938v-162.958c0-4.951-4.807-1.884 0.201-1.884h93.253c4.951 0 8.938 2.245 8.938 7.197s-4.074 7.197-9.009 7.197zM685.961 417.079c-53.773 0-118.355-14.695-147.141-42.834v417.789h-532.544v-877.98h478.27c53.528-43.179 123.753-74.054 198.409-74.054 157.288 0 286.768 131.251 286.768 288.539s-126.473 288.539-283.76 288.539zM682.924-101.966c-128.891 0-233.803 104.883-233.803 233.803 0 128.891 104.911 233.774 233.803 233.774 128.92 0 233.774-104.883 233.774-233.774 0-128.92-104.853-233.803-233.774-233.803zM49.453 748.855h431.793v-438.285c-43.179-47.626-68.007-106.451-68.007-174.963 0-56.925 17.818-120.801 48.043-149.587h-411.83v762.835z" />
<glyph unicode="&#xe913;" glyph-name="30" horiz-adv-x="784" d="M706.182 611.325h-54.831v195.039c0 33.805-21.304 57.636-55.096 57.636h-17.009c-16.344 0-31.611-4.575-43.195-16.158-11.53-11.583-17.714-25.174-17.714-41.492v-195.026h-252.675v194.999c0 16.344-6.809 29.936-18.365 41.532-11.583 11.583-27.436 16.144-43.82 16.144h-17.009c-33.792 0-67.092-23.844-67.092-57.636v-195.039h-42.862c-41.718 0-76.826-28.525-76.826-70.204v-7.088c0-32.435 26.597-60.176 53.195-70.935v-158.986c0-153.067 106.39-281.189 252.675-310.99v-153.121h39.896v147.59c0-0.598 13.923-1.304 22.129-1.304h47.53c8.232 0 10.134 0.706 23.433 1.304v-147.59h39.896v153.121c146.286 29.828 252.675 157.922 252.675 310.99v158.986c26.597 10.758 53.195 38.5 53.195 70.935v7.088c0.026 41.705-36.385 70.204-78.13 70.204zM558.26 806.404c0 5.705 2.021 9.203 6.078 13.273 4.056 4.043 9.216 4.428 14.935 4.428h16.982c11.822 0 15.199-5.944 15.199-17.74v-195.039h-53.195v195.080zM159.299 806.364c0 11.796 15.373 17.74 27.168 17.74h17.009c5.745 0 11.53-0.385 15.586-4.441s6.728-7.554 6.728-13.299v-195.039h-66.494v195.039zM717.844 534.020c0-5.094-6.57-15.799-11.663-15.799h-41.532v-214.162c0-138.413-111.098-251.292-249.537-251.292h-47.53c-138.36 0-248.154 112.879-248.154 251.292v147.682h252.675v66.494h-295.589c-5.066 0-10.281 10.705-10.281 15.799v7.088c0 5.041 5.253 3.711 10.281 3.711h629.694c5.066 0 11.663 1.33 11.663-3.711l-0.026-7.101z" />
<glyph unicode="&#xe914;" glyph-name="31" d="M976.886 524.6c-13.829 15.13-32.658 24.622-50.894 32.994-19.322 8.914-43.125 11.262-64.375 11.262h-132.363c-6.964 12.046-15.227 25.586-24.513 35.391-14.864 15.479-32.261 27.176-51.691 35.67-20.334 8.962-42.728 13.251-64.942 13.251h-414.824c-22.081 0-44.451-3.035-64.869-12.023-29.079-12.841-58.893-32.874-76.264-59.689-17.43-26.935-32.152-57.257-32.152-89.575v-283.23c0-43.125 21.66-83.878 51.354-114.788 14.876-15.359 34.982-24.261 54.389-32.706 20.31-8.89 45.366-10.324 67.555-10.324h414.836c22.165 0 44.583 1.361 64.99 10.324 29.079 12.817 53.497 36.235 70.868 63.049 1.746 2.758 3.409 10.938 5.011 10.938h132.556c21.274 0 42.679 0.445 61.857 9.312 27.32 12.805 55.124 30.912 71.289 57.123 15.972 25.694 29.296 53.485 29.296 84.42v128.774c-0.060 40.945-19.84 80.048-47.113 109.824zM674.598 208.701c0-59.243-40.257-97.622-92.020-97.622h-406.415c-53.966 0-103.875 41.269-103.875 97.622v283.23c0 56.4 49.906 101.032 103.875 101.032h406.426c51.811 0 92.020-41.741 92.020-101.032v-283.23zM864.471 183.368h-131.761c0 24.092-0.421 70.265-0.759 108.716-0.144 15.009-0.277 35.837-0.421 47.883h221.096l0.048-57.388c0-53.401-39.548-99.213-88.202-99.213zM951.66 364.060h-220.264c-0.193 24.092-0.277 39.235-0.277 59.496 0 33.525 0.324 73.013 1.205 85.059h132.183c48.63 0 87.19-40.68 87.19-94.128l-0.037-50.426zM888.045 291.783h-110.344c-14.937 0-26.887-14.6-26.887-30.104-0.072-15.444 11.95-30.127 26.887-30.127h110.344c14.889 0 26.911 14.684 26.911 30.127 0 15.515-11.998 30.104-26.911 30.104zM888.045 472.476h-110.344c-14.937 0-26.887-14.733-26.887-30.080 0-15.515 11.998-30.152 26.887-30.152h110.344c14.889 0 26.911 14.636 26.911 30.152 0 15.431-11.998 30.080-26.911 30.080z" />
<glyph unicode="&#xe915;" glyph-name="32" d="M512.011 660.877c-272.694 0-512.011-187.285-512.011-300.54 0-107.189 231.791-317.212 512.011-317.212 274.981 0 511.989 212.757 511.989 317.212 0 101.569-231.791 300.54-511.989 300.54zM53.601 360.347c0 36.111 55.495 101.309 142.614 155.508v-319.204c-10.89 8.276-21.78 16.781-32.67 25.352v222.077h-32.67v-194.462c-43.57 44.572-77.275 87.565-77.275 110.728zM228.874 176.232v358.244c76.229 41.033 177.244 71.95 283.747 71.95 107.603 0 206.299-31.657 282.528-72.983v-357.929c-76.229-44.138-174.925-77.928-282.528-77.928-108.18 0-207.518 34.172-283.747 78.646zM827.817 195.844v318.573c10.89-6.686 21.78-13.525 32.67-20.429v-235.026h32.67v209.729c43.56-43.364 80.596-85.823 80.596-108.322 0.021-32.593-58.816-104.25-145.935-164.524zM653.579 422.31h-32.67v-54.449h-87.119v54.449h-32.67v-54.449h-98.009v54.449h-32.67v-54.449h-65.339v-32.67h65.339v-54.449h32.67v54.449h98.009v-54.449h32.67v54.449h87.119v-54.449h32.67v54.449h65.339v32.67h-65.339zM740.698 367.861h32.67v-32.67h-32.67v32.67zM250.653 367.861h32.67v-32.67h-32.67v32.67z" />
<glyph unicode="&#xe916;" glyph-name="33" d="M512.055 863.999c-282.344 0-512.048-229.69-512.048-512.021 0-282.316 229.705-511.979 512.048-511.979 282.316 0 511.938 229.65 511.938 511.979 0 282.316-229.622 512.021-511.938 512.021zM943.018 247.95c-256.627 169.164-512.528 230.472-684.847 251.828 9.258 27.512 19.832 53.9 31.587 78.809 81.126 0.864 152.705 20.683 221.927 39.994 60.169 16.788 116.949 32.601 172.005 32.601 75.913 0 148.812-19.64 179.697-29.145 57.646-74.845 92.070-168.492 92.070-270.040-0.041-35.838-4.402-70.634-12.44-104.045zM265.042 621.554c-34.877 6.721-51.721 30.833-59.689 50.308 46.235 44.328 102.014 78.753 163.967 99.889-38.581-40.35-74.419-92.044-104.278-150.197zM812.392 677.787c-36.319 7.722-81.675 14.566-128.746 14.566-60.648 0-120.091-16.581-183.045-34.11-60.251-16.814-122.299-34.027-189.6-37.841 43.34 78.465 96.391 138.909 145.615 171.441 18.159 2.277 36.621 3.594 55.395 3.594 115.813-0.013 221.366-44.712 300.378-117.65zM175.344 640.071c13.825-24.057 36.621-46.755 71.456-56.507-11.425-25.552-21.657-52.050-30.489-79.151-49.101 4.745-89.314 6.158-118.267 6.337 18.35 47.593 44.63 91.249 77.299 129.321zM194.627 422.929c-3.209-15.717-5.76-31.271-7.887-46.783-45.397-2.058-82.388-16.869-109.928-44.492-2.578-2.592-4.897-5.28-7.2-7.928-0.589 9.381-1.002 18.777-1.002 28.268 0 40.762 5.637 80.222 15.979 117.705 26.58 0.288 67.739-0.589 119.928-5.295-3.704-13.729-7.036-27.554-9.888-41.475zM78.391 259.279c12.028 32.684 39.897 69.975 103.797 75.243-10.040-127.594 16.856-246.287 78.259-347.437-91.44 63.282-158.055 159.907-182.058 272.194zM343.644-58.121c-111.807 130.665-128.759 279.614-120.407 389.418 64.271-19.175 145.136-103.029 223.737-184.513 81.318-84.282 164.625-170.592 243.13-200.765-54.519-24.029-114.688-37.429-178.011-37.429-59.649-0.013-116.512 11.85-168.452 33.286zM746.901-23.861c-76.023-1.934-174.678 100.080-270.328 199.188-88.202 91.427-171.991 178.217-248.878 197.267 2.113 15.142 4.608 29.323 7.214 42.010 3.14 15.456 7.009 30.571 11.109 45.467 169.439-20.121 427.054-80.455 684.834-253.445-33.451-96.089-99.079-177.228-183.95-230.485z" />
<glyph unicode="&#xe917;" glyph-name="34" horiz-adv-x="1008" d="M1003.23 376.169c0 268.995-222.032 487.831-497.256 487.831-35.974 0-63.331-29.206-63.331-65.152v-358.148h-372.669c-35.948 0-65.206-28.935-65.206-64.896 0-135.117 57.776-263.98 158.714-356.151-6.163-15.33-9.667-31.943-9.667-49.457 0-73.418 59.759-130.196 133.149-130.196 56.563 0 104.888 34.397 124.169 88.33h185.668c19.281-53.934 67.605-88.304 124.169-88.304 73.389 0 133.149 58.302 133.149 131.747 0 17.515-3.533 33.467-9.695 48.851 101.288 92.308 158.809 219.739 158.809 355.546zM510.017 796.584c215.735-1.025 388.444-153.631 420.589-355.883h-420.589v355.883zM286.988-95.443c-36.244 0-65.732 29.502-65.732 65.732 0 36.257 29.502 65.758 65.732 65.758 36.257 0 65.758-29.502 65.758-65.732-0.026-36.257-29.489-65.758-65.758-65.758zM589.395-4.267h-170.862c-9.559 53.934-64.842 110.605-131.572 110.605-31.416 0-60.285-13.672-83.058-31.916-63.629 59.934-106.425 137.060-123.348 217.961h78.933v26.967h-83.476c-2.319 13.483-3.682 40.45-3.762 53.934h863.629c-0.108-13.483-1.402-40.45-3.708-53.934h-435.582v-26.967h430.945c-16.963-80.901-59.785-159.239-123.644-219.309-22.76 18.203-51.533 32.656-82.87 32.656-66.811 0-122.093-56.065-131.626-109.999zM720.967-95.443c-36.257 0-65.758 29.502-65.758 65.732 0 36.257 29.502 65.732 65.758 65.732 36.244 0 65.732-29.502 65.732-65.732s-29.502-65.732-65.732-65.732zM307.766 319.349h53.934v-26.967h-53.934v26.967zM199.898 319.349h53.934v-26.967h-53.934v26.967zM402.15 319.349h53.934v-26.967h-53.934v26.967z" />
<glyph unicode="&#xe918;" glyph-name="35" d="M365.527 395.25c-37.658 0-59.525-30.582-59.525-68.253v-25.465c0-37.617 24.686-68.2 62.343-68.2 18.155 0 29.472 7.1 42.429 20.032 12.892 12.905 14.227 30.028 14.227 48.207v25.439c0 37.63-21.883 68.24-59.474 68.24zM398.557 301.504c0-10.591-2.327-20.588-9.863-28.122-7.51-7.537-11.648-11.701-22.266-11.701-22.002 0-33.982 17.876-33.982 39.825v25.465c0 22.002 11.107 39.918 33.081 39.918 21.949 0 33.030-17.903 33.030-39.918v-25.465zM583.652 395.25c-37.63 0-66.111-30.582-66.111-68.253v-25.465c0-37.617 28.481-68.2 66.111-68.2 37.604 0 66.111 30.582 66.111 68.2v25.465c0 37.642-28.507 68.253-66.111 68.253zM623.319 301.531c0-21.976-17.718-39.838-39.666-39.838-21.976 0-39.666 17.863-39.666 39.838v25.465c0 21.976 17.691 39.904 39.666 39.904 21.949 0 39.666-17.903 39.666-39.904v-25.465zM485.162 513.538l28.119-3.278-43.806-375.751-28.119 3.278 43.806 375.751zM984.654 815.278c-27.278 28.851-65.622 45.404-105.235 45.404-37.035 0-72.233-13.99-99.113-39.389l-107.152-101.15-261.006-12.415-412.147-407.969 451.827-456.442 412.226 408.102 15.496 268.238 99.166 91.114c57.953 54.581 60.663 146.304 5.936 204.507zM794.797 282.663l-342.479-339.095-352.040 355.635 342.4 338.95 166.745 7.933c-8.264-17.691-12.945-36.982-13.487-57.027-1.111-38.622 12.892-75.353 39.455-103.556 26.656-27.938 63.889-44.348 102.233-45.034l0.78 42.588c-27.093 0.462-53.35 12.071-72.154 31.733-18.723 19.833-28.56 45.789-27.819 73.092 0.595 22.346 8.475 43.396 22.359 60.65l155.439 7.391-21.433-373.261zM883.015 580.678l8.648 149.806-153.324-7.273 71.122 67.090c19.013 17.916 43.817 27.806 69.932 27.806 27.965 0 55.057-11.675 74.268-32.023 38.609-41.041 36.718-105.803-4.032-144.134l-66.612-61.271z" />
<glyph unicode="&#xe919;" glyph-name="36" d="M632.726 247.399c-23.12 0-41.964-19.385-41.964-43.141 0-23.826 18.867-43.224 41.964-43.224 10.953 0 21.329 4.347 29.197 12.236 8.209 8.233 12.72 19.255 12.673 30.986 0 23.791-18.774 43.141-41.869 43.141zM645.221 189.901c-3.403-3.428-7.844-5.312-12.497-5.312-10.141 0-18.409 8.834-18.409 19.692 0 10.764 8.233 19.575 18.409 19.575 10.059 0 18.314-8.81 18.314-19.622 0-5.477-2.050-10.553-5.819-14.333zM843.638 247.399c-23.072 0-41.869-19.385-41.869-43.141 0-23.826 18.797-43.224 41.869-43.224 11.047 0 21.388 4.37 29.28 12.283 8.186 8.233 12.65 19.255 12.578 30.916 0.059 23.814-18.738 43.166-41.858 43.166zM856.252 189.924c-3.428-3.428-7.892-5.336-12.578-5.336-10.070 0-18.314 8.81-18.314 19.669 0 10.788 8.209 19.586 18.314 19.586 10.117 0 18.361-8.797 18.361-19.658-0.011-5.43-2.038-10.483-5.783-14.263zM738.193 341.466c-23.12 0-41.941-19.374-41.941-43.153s18.821-43.071 41.941-43.071c11 0 21.364 4.334 29.232 12.272 8.162 8.186 12.65 19.161 12.603 30.822 0.036 23.766-18.738 43.13-41.834 43.13zM750.783 284.121c-3.428-3.451-7.892-5.323-12.555-5.323-10.117 0-18.386 8.75-18.386 19.516 0 10.811 8.233 19.598 18.386 19.598 10.070 0 18.314-8.785 18.314-19.645-0.011-5.406-2.038-10.411-5.759-14.145zM738.193 153.308c-23.12 0-41.941-19.374-41.941-43.13 0-23.802 18.821-43.177 41.941-43.177 10.977 0 21.352 4.347 29.197 12.26 8.209 8.233 12.697 19.232 12.65 30.916 0.023 23.779-18.75 43.13-41.846 43.13zM750.737 95.892c-3.428-3.451-7.892-5.336-12.531-5.336-10.094 0-18.361 8.81-18.361 19.622 0 10.788 8.233 19.575 18.361 19.575 10.094 0 18.338-8.785 18.338-19.622-0.011-5.43-2.061-10.494-5.806-14.239zM944.995 384.666c-51.21 52.835-119.317 81.653-191.75 81.653h-65.048c-11.613 35.333-45.661 58.888-85.705 58.888h-111.64c-0.483 11.778-1.402 6.961-2.968 9.081-23.167 32.141-5.383 51.162 24.356 74.824 20.246 15.994 28.219 29.915 34.637 42.269 11.201 21.694 13.038 45.037 5.406 66.991-10.376 29.597-36.946 54.766-76.825 72.621-8.951 4.004-19.374 0.047-23.32-8.857-3.98-8.904 0-19.327 8.928-23.308 30.386-13.592 50.926-32.011 57.921-51.868 4.44-12.744 3.262-25.769-3.428-38.76-4.3-8.256-9.175-19.786-25.274-32.495-22.683-18.043-67.863-51.61-39.478-110.497h-29.255c-40.067 0-74.116-23.555-85.729-58.888h-76.071c-5.088 0-10.236-0.141-15.064-0.954-137.326-13.675-244.69-134.995-244.69-276.984 0-153.472 121.497-276.936 270.836-276.936 78.486 0 151.706 36.593 203.093 95.481h76.166c51.316-58.888 124.536-95.445 203.069-95.445 149.339 0 270.836 124.028 270.836 277.514 0.011 74.151-28.008 143.075-79.004 195.671zM753.127-30.929c-64.988 0-125.384 31.447-165.734 83.938l-8.834 12.861h-133.169l-8.834-12.838c-40.443-52.493-100.851-83.244-165.758-83.244-116.88 0-211.949 98.153-211.949 219.145 0 112.345 84.61 206.719 192.586 218.497h2.697c1.707 0 3.686 0 5.595 0h131.967v32.082c0 17.184 12.673 26.806 29.832 26.806h180.916c17.137 0 36.557-9.622 36.557-26.806v-32.082h114.231c56.355 0 109.448-22.436 149.469-63.729 40.255-41.539 62.385-96.564 62.338-155.322 0.036-121.014-95.057-219.309-211.913-219.309zM574.391 430.975h-126.586c-8.114 0-14.698-9.575-14.698-17.666 0-8.114 6.584-17.666 14.698-17.666h126.586c8.103 0 14.698 9.552 14.698 17.666s-6.595 17.666-14.698 17.666zM361.794 218.979h-76.143v72.278c0 9.763-7.939 17.666-17.666 17.666s-17.666-7.903-17.666-17.666v-72.278h-72.985c-9.752 0-17.666-7.915-17.666-17.666s7.915-17.666 17.666-17.666h72.985v-76.825c0-9.752 7.939-17.666 17.666-17.666s17.666 7.915 17.666 17.666v76.825h76.143c9.728 0 17.666 7.915 17.666 17.666s-7.939 17.666-17.666 17.666z" />
<glyph unicode="&#xe91a;" glyph-name="37" d="M870.256 468.651h58.83c6.377 0 17.134 9.981 17.134 16.409v58.83c0 6.416-10.732 15.502-17.134 15.502h-58.83c-6.403 0-14.762-9.098-14.762-15.502v-58.83c0-6.429 8.36-16.409 14.762-16.409zM921.282 663.068h-230.864l-44.808 77.767h-263.864l-44.808-77.767h-230.838c-58.674 0-106.101-48.228-106.101-106.891v-487.12c0-58.674 47.386-105.893 106.101-105.893h815.195c58.674 0 102.704 47.243 102.704 105.893v487.12c-0.013 58.662-44.004 106.891-102.717 106.891zM106.155 598.262h220.767l37.316-22.501 55.966 100.268h187.004l55.94-100.268 37.341 22.501h220.794c22.955 0 37.898-19.17 37.898-42.085v-152.334h-228.791c-34.684 77.767-118.647 146.436-216.672 146.436s-181.989-68.669-216.724-146.436h-232.134v152.334c0 22.915 18.301 42.085 41.295 42.085zM682.642 312.623c0-93.165-75.798-168.962-168.923-168.962-93.165 0-168.948 75.798-168.948 168.962s75.772 168.975 168.948 168.975c93.152 0.013 168.923-75.784 168.923-168.975zM921.282 27.969h-815.182c-22.955 0-41.295 18.12-41.295 41.061v308.892h223.529c-5.365-25.922-8.425-42.071-8.425-63.367 0-128.9 104.882-234.74 233.782-234.74 128.848 0 233.702 106.321 233.702 235.221 0 21.294-3.059 36.965-8.399 62.888h220.159v-308.892c0.025-22.942-14.906-41.061-37.872-41.061zM377.678 300.155h35.968c0 64.806 53.012 110.546 104.857 110.546v36.045c-77.767 0.025-140.824-68.823-140.824-146.59z" />
<glyph unicode="&#xe91b;" glyph-name="38" d="M514.787 461.513c85.494 0 154.929-68.704 154.929-153.192 0-84.377-69.407-153.095-154.929-153.095-85.384 0-154.916 68.691-154.916 153.095 0.013 84.459 69.532 153.192 154.916 153.192zM514.787 536.219c-126.621 0-229.637-102.201-229.637-227.911 0-125.599 103.044-227.801 229.637-227.801 126.648 0 229.65 102.173 229.65 227.801 0.042 125.668-103.002 227.911-229.65 227.911v0zM827.201 488.444c-25.246 0-45.569-20.047-45.569-44.975 0-25.012 20.323-45.114 45.569-45.114 25.219 0 45.541 20.102 45.541 45.114 0.042 24.93-20.267 44.975-45.541 44.975zM629.144 718.203l88.598-130.511 22.129-32.477 39.346-0.289 98.587-0.482c69.657 0 71.574-69.104 71.574-69.781v-427.969c0-39.097-32.144-70.925-71.588-70.925h-731.317c-39.527 0-71.698 31.828-71.698 70.925v427.969c0 38.45 32.172 69.781 72.139 69.781l129.228 0.801 22.142 31.662 91.745 131.352 239.114-0.055zM644.912 792.951h-270.637c-14.679 0-28.53-7.463-37.181-19.935l-100.133-143.314-90.544-0.51c-80.763 0-146.417-64.842-146.417-144.528v-427.969c0-80.238 65.753-145.646 146.417-145.646h731.276c80.735 0 146.307 65.365 146.307 145.646v427.969c0 38.367-28.475 144.528-146.294 144.528l-98.215 0.51-96.683 142.417c-8.291 12.885-22.888 20.831-37.897 20.831v0z" />
<glyph unicode="&#xe91c;" glyph-name="39" d="M1007.959 694.974c-262.947 122.272-307.803 133.813-318.614 133.813h-54.232c-8.806 0-16.955-1.375-22.354-8.336-5.275-6.911-7.109-14.701-4.904-23.035 2.155-8.261 3.245-15.741 3.245-23.555 0-52.534-42.739-94.964-95.298-94.964s-95.298 42.913-95.298 95.471c0 7.79 1.090 16.038 3.269 24.261 2.205 8.384 0.333 14.899-4.954 21.772-5.275 6.886-13.623 8.397-22.304 8.397h-53.649c-6.452 0-15.307 2.625-325.475-125.938-11.517-4.781-18.577-15.43-17.227-27.815l23.295-211.131c0.941-8.558 5.907-16.088 13.202-20.584 7.381-4.521 16.496-5.263 24.547-2.255l105.775 39.717v-368.19c0-7.591 3.245-20.509 8.681-25.785 5.176-5.027 12.384-13.474 20.584-13.474 0.050 0 0.074 0 0.123 0l-0.26 11.616 1.808-3.245c1.572 0.050 3.196 1.498 4.843 1.498 102.394 0 185.643-80.376 185.643-182.745 0-15.555 12.632-25.276 28.151-25.276h213.854c15.555 0 28.151 10.452 28.151 25.983 0 100.599 76.462 180.924 176.961 184.391 15.232 0.507 24.991 11.753 24.991 27.073v367.842l107.572-39.222c8.223-3.071 18.836-2.044 26.118 2.663 7.431 4.718 12.817 12.781 13.5 21.561l16.211 203.067c0.905 11.653-5.337 21.499-15.951 26.416zM954.966 506.012l-108.265 40.857c-8.558 3.196-17.277 2.255-24.793-2.972-7.542-5.275-10.936-13.672-10.936-22.886v-382.703c-111.46-15.79-194.695-102.148-207.179-213.608h-160.676c-13.202 123.844-115.163 205.606-226.623 215.352v381.353c0 9.226-0.991 17.883-8.582 23.159-7.48 5.214-15.58 6.452-24.138 3.257l-109.144-41.079-16.619 149.356c123.597 51.135 264.594 110.78 288.421 110.78h17.709c-0.024 0-0.024 3.319-0.024 2.255 0-83.645 68.015-148.972 151.686-148.972 83.62 0 151.66 63.979 151.66 147.622 0 1.066-0.024-0.88-0.050-0.88h19.518c22.738 0 156.427-60.56 279.468-117.541l-11.431-143.35zM653.579 463.805c5.945 9.139 13.858 20.36 22.712 30.193 2.489 2.836 2.304 7.133-0.532 9.636s-7.109 2.291-9.622-0.52c-6.899-7.678-13.177-16.013-18.552-23.691 3.876 15.592 0.941 28.867 0.731 29.76-0.842 3.654-4.472 5.932-8.15 5.102-3.678-0.818-5.97-4.484-5.127-8.174 0.248-1.139 5.994-28.125-14.342-46.292-0.868 6.192-4.037 12.075-9.338 16.211l-16.955 17.103c-0.248 0.26-0.482 0.458-0.781 0.681-6.341 4.731-12.001 7.010-17.251 7.010-3.987 0-9.721-1.312-14.49-7.764l-12.67-17.029c-4.112-5.511-5.35-11.964-3.356-18.168 1.621-5.102 5.301-9.932 10.614-13.932 0.26-0.222 0.581-0.383 0.868-0.557l5.994-3.208c-10.019 1.969-20.347 3.009-30.862 3.009-56.237 0-106.964-29.796-128.241-74.752-1.932 0.272-3.888 0.47-5.932 0.47-20.917 0-37.946-17.338-37.946-38.651 0-21.339 17.005-38.664 37.934-38.677 15.79-52.634 71.211-90.22 134.198-90.22 63.111 0 118.47 37.599 134.273 90.246 0.507-0.012 0.991-0.024 1.498-0.024 20.881 0 37.91 17.338 37.91 38.677 0 21.313-17.029 38.651-37.91 38.651-2.489 0-4.93-0.26-7.357-0.756-0.248 0.446-0.458 0.868-0.707 1.312 1.808-0.433 3.579-0.694 5.374-0.694 6.39 0 12.099 2.959 16.161 8.421l12.694 17.029c5.4 7.245 4.385 13.809 2.588 18.057-1.858 4.335-5.436 8.459-11.009 12.595-0.248 0.222-0.557 0.383-0.818 0.532l-21.24 11.368c-4.284 3.034-9.238 4.644-14.49 4.644-2.205 0-4.31-0.285-6.415-0.842 5.586 5.661 22.082 19.108 47.742 12.682 3.703-0.905 7.381 1.288 8.298 4.954 0.868 3.654-1.3 7.369-4.978 8.273-16.607 4.173-30.193 1.708-40.522-2.663zM613.911 437.55l2.205 2.885c1.263 1.696 3.146 2.638 5.226 2.638 1.399 0 2.786-0.433 3.888-1.288 1.375-1.040 2.304-2.576 2.514-4.31 0.26-1.721-0.173-3.43-1.238-4.867l-2.18-2.897c-2.081-2.81-6.315-3.406-9.115-1.3-2.848 2.168-3.456 6.254-1.3 9.139zM558.801 461.91c-0.458 1.362-0.707 3.307 1.288 5.932l12.67 17.029c1.721 2.279 2.923 2.279 3.555 2.279 1.189 0 3.888-0.532 8.681-4.025l16.906-17.053c0.248-0.26 0.482-0.458 0.781-0.669 5.053-3.753 6.069-10.886 2.328-15.902l-2.873-3.876c-2.18-2.897-5.461-4.571-9.115-4.571-2.439 0-4.817 0.781-6.824 2.279-0.248 0.198-0.532 0.359-0.793 0.532l-21.165 11.332c-2.848 2.094-4.756 4.496-5.436 6.712zM599.856 427.891c-0.222 0.099-0.408 0.222-0.607 0.26 0.149 0.024 0.285 0.111 0.433 0.161 0.050-0.137 0.123-0.272 0.173-0.42zM668.18 355.231c13.375 0 24.261-11.196 24.261-25.017s-10.886-25.029-24.261-25.029c-1.696 0-3.356 0.222-5.053 0.557l-6.526 1.437-1.572-6.489c-11.827-49.686-63.371-85.7-122.556-85.7-59.025 0-110.543 35.915-122.469 85.428l-1.524 6.192-6.291-1.066c-1.399-0.248-2.712-0.359-3.888-0.359-13.375 0-24.261 11.233-24.261 25.029 0 13.759 10.886 25.017 24.261 25.017 2.564 0 5.152-0.433 7.617-1.288l6.093-2.081 2.439 5.932c17.586 42.913 65.043 71.719 117.986 71.719 53.315 0 100.796-29.004 118.234-72.176l2.539-6.291 6.291 2.489c2.81 1.127 5.71 1.696 8.681 1.696zM649.393 427.767c2.465 0 4.817-0.781 6.799-2.279 0.26-0.222 0.581-0.383 0.842-0.557l21.19-11.344c4.037-3.097 5.56-5.325 6.119-6.674 0.482-1.040 0.781-2.279-0.941-4.571l-12.694-17.005c-1.932-2.638-3.876-2.923-5.176-2.923-2.328 0-5.226 1.151-8.15 3.245l-16.88 17.029c-0.26 0.26-0.482 0.47-0.781 0.681-5.053 3.777-6.093 10.886-2.328 15.914l2.873 3.876c2.155 2.935 5.499 4.607 9.127 4.607zM470.276 338.177c-6.923 0-12.557-5.611-12.557-12.521s5.635-12.521 12.557-12.521 12.508 5.611 12.508 12.521-5.586 12.521-12.508 12.521zM470.276 319.985c-3.17 0-5.685 2.564-5.685 5.685s2.514 5.673 5.685 5.673c3.121 0 5.685-2.551 5.685-5.673s-2.564-5.685-5.685-5.685zM580.982 338.177c-6.923 0-12.508-5.611-12.508-12.521s5.586-12.521 12.508-12.521 12.484 5.611 12.484 12.521-5.611 12.521-12.484 12.521zM580.982 319.985c-3.146 0-5.71 2.564-5.71 5.685s2.564 5.673 5.71 5.673c3.121 0 5.685-2.551 5.685-5.673s-2.588-5.685-5.685-5.685zM559.481 274.002c-32.583-19.865-63.321-0.855-64.659-0.037-1.597 1.003-3.703 0.545-4.694-1.052-1.040-1.597-0.581-3.703 1.016-4.718 0.967-0.607 16.187-10.056 36.82-10.056 10.614 0 22.738 2.501 35.023 10.031 1.621 0.967 2.155 3.071 1.189 4.694-0.991 1.597-3.071 2.106-4.694 1.139z" />
<glyph unicode="&#xe91d;" glyph-name="40" d="M939.307 863.999c-39.285 0-71.219-31.906-71.219-71.162v-143.079h-213.656v20.482c0 41.421-33.446 75.108-74.865 75.108-35.609 0-65.322-24.941-72.999-58.271-7.649 33.33-37.474 58.271-73.084 58.271-41.421 0-75.065-33.687-75.065-75.108 0 41.421-31.379 75.108-72.8 75.108-41.392 0-72.743-33.687-72.743-75.108v-20.482h-56.975v143.050c0 39.271-31.963 71.162-71.219 71.162-39.285 0-71.219-31.891-71.219-71.162v-881.618c0-39.256 31.934-71.191 71.219-71.191 39.256 0 71.219 31.906 71.219 71.191v168.817h128.194v-26.479c0-41.392 35.311-75.079 76.731-75.079s75.918 33.687 75.918 75.079c0-41.392 31.792-75.079 73.227-75.079 41.449 0 73.255 33.687 73.255 75.079v26.479h284.875v-168.817c0-39.256 31.991-71.191 71.219-71.191 39.285 0 71.219 31.906 71.219 71.191v881.618c-0.014 39.256-31.977 71.191-71.233 71.191zM113.17-88.793c0-13.104-8.291-23.731-21.366-23.731-13.132 0-21.366 10.625-21.366 23.731v881.604c0 13.090 8.234 23.731 21.366 23.731 13.075 0 21.366-10.639 21.366-23.731v-881.604zM554.726 670.255c0 15.269 13.218 27.675 28.487 27.675 15.212 0 28.487-12.421 28.487-27.675v-86.972c0-15.228-13.275-27.647-28.487-27.647-15.269 0-28.487 12.436-28.487 27.647v86.972zM412.288 670.255c0 15.269 6.124 27.675 21.366 27.675 15.212 0 21.366-12.421 21.366-27.675v-86.972c0-15.228-6.153-27.647-21.366-27.647-15.241 0-21.366 12.436-21.366 27.647v86.972zM255.607 670.255c0 15.269 13.246 27.675 28.487 27.675 15.212 0 28.487-12.421 28.487-27.675v-86.972c0-15.228-13.275-27.647-28.487-27.647-15.241 0-28.487 12.436-28.487 27.647v86.972zM383.801 53.501c0-15.241-6.153-27.647-21.393-27.647s-21.338 12.407-21.338 27.647v86.958c0 15.241 6.096 27.675 21.338 27.675s21.393-12.436 21.393-27.675v-86.958zM540.482 53.501c0-15.241-13.275-27.647-28.487-27.647-15.241 0-28.487 12.407-28.487 27.647v86.958c0 15.241 13.246 27.675 28.487 27.675 15.212 0 28.487-12.436 28.487-27.675v-86.958zM868.088 122.741h-284.875v17.747c0 41.421-31.407 75.122-72.828 75.122s-73.967-33.701-73.967-75.122c0 41.421-34.726 75.122-76.177 75.122-41.392 0-76.148-33.701-76.148-75.122v-17.747h-128.194v213.656h341.85v-18.004c0-41.421 33.216-75.079 74.637-75.079 41.392 0 74.865 33.687 74.865 75.079 0-41.421 33.415-75.079 74.808-75.079s74.78 33.687 74.78 75.079v18.004h71.219l0.028-213.656zM540.482 318.407v86.958c0 15.241 13.246 27.647 28.515 27.647 15.212 0 28.46-12.407 28.46-27.647v-86.958c0-15.241-13.246-27.675-28.46-27.675-15.269-0.014-28.515 12.421-28.515 27.675zM697.163 318.407v86.958c0 15.241 13.246 27.647 28.487 27.647s28.487-12.407 28.487-27.647v-86.958c0-15.241-13.246-27.675-28.487-27.675s-28.487 12.421-28.487 27.675zM868.088 393.372h-71.219v12.022c0 41.392-33.53 75.108-74.922 75.108s-75.036-33.715-75.036-75.108c0 41.392-33.187 75.108-74.58 75.108-41.449 0-74.608-33.715-74.608-75.108v-12.022h-341.85v213.656h56.975v-23.759c0-41.392 31.379-75.079 72.8-75.079 41.392 0 73.967 33.701 73.967 75.079 0-41.392 33.045-75.079 74.48-75.079 35.609 0 65.179 24.941 72.857 58.258 7.676-33.315 37.091-58.258 72.7-58.258 41.392 0 74.665 33.701 74.665 75.079v23.759h213.656v-213.656h0.114zM953.55-88.793c0-13.104-8.261-23.731-21.366-23.731-13.075 0-21.366 10.625-21.366 23.731v881.604c0 13.090 8.291 23.731 21.366 23.731 13.104 0 21.366-10.639 21.366-23.731v-881.604z" />
<glyph unicode="&#xe91e;" glyph-name="41" d="M416.742 274.605h35.721v-35.721h-35.721v35.721zM500.091 274.605h35.721v-35.721h-35.721v35.721zM583.439 274.605h35.721v-35.721h-35.721v35.721zM1003.327 369.86h-110.306v130.977h39.937c16.443 0 29.767 13.3 29.767 29.767 0 16.443-13.324 29.767-29.767 29.767h-57.451c-35.4 23.814-172.187 119.559-365.401 119.559-192.893 0-326.715-95.744-361.793-119.559h-57.249c-16.443 0-29.767-13.324-29.767-29.767 0-16.468 13.324-29.767 29.767-29.767h39.912v-130.977h-110.306c-9.859 0-20.67-6.788-20.67-16.647v-39.352c0-8.859 8.906-16.372 17.647-17.67l113.33-16.182v-245.307c0-67.763 53.165-117.307 120.94-117.307h520.18c67.763 0 120.927 49.51 120.927 117.307v245.295l113.307 16.206c8.775 1.274 17.67 8.787 17.67 17.647v39.352c0 9.871-10.812 16.658-20.67 16.658zM510.068 620.395c104.139 0 191.143-24.302 250.511-60.023h-499.366c58.165 35.721 144.11 60.023 248.856 60.023zM35.719 329.306v4.834h95.256v-18.074l-95.256 13.241zM833.486 34.702c0-34.959-26.493-57.773-61.392-57.773h-520.18c-34.97 0-61.405 22.814-61.405 57.773v466.135h642.977v-466.135zM988.276 329.306l-95.256-13.205v18.039h95.256v-4.834zM476.277 703.255h59.535v23.814h35.721v59.535h-119.070v-59.535h23.814z" />
<glyph unicode="&#xe91f;" glyph-name="42" horiz-adv-x="688" d="M659.1 863.999h-630.214c-16.636 0-28.225-19.107-28.225-35.743v-906.519c0-16.636 11.59-33.55 28.225-33.55h44.043v-24.466c0-9.998 2.253-23.721 12.228-23.721h517.661c9.975 0 12.24 13.72 12.24 23.721v24.491h44.068c16.636 0 28.213 16.889 28.213 33.526v906.519c0 16.636-11.601 35.743-28.238 35.743zM627.104 803.765v-505.964h-566.197v505.964h566.197zM578.917-123.836h-469.823v12.047h469.823v-12.047zM627.104-51.556h-566.197v289.122h566.197v-289.122zM133.187 201.427h36.14v-192.748h-36.14v192.748zM133.187 743.531h36.14v-409.59h-36.14v409.59zM368.496 518.546l65.86 37.718v-77.762h36.14v77.762l64.8-37.718 17.817 31.322-65.51 37.742 65.269 37.718-17.577 31.298-64.8-37.694v76.426h-36.14v-76.497l-65.836 37.718-18.335-31.322 65.209-37.718-65.137-37.718 18.238-31.273zM417.176 592.923l17.082 30.14h34.165l17.082-30.14-17.058-30.093h-34.188l-17.082 30.093z" />
<glyph unicode="&#xe920;" glyph-name="43" d="M992.374 433.351h-62.091v25.418c0 126.845-180.275 218.848-419.248 218.848-239.023 0-419.297-92.040-419.297-218.848v-25.418h-60.063c-17.497 0-31.676-20.075-31.676-37.547s14.18-37.547 31.676-37.547h60.063v-319.949c0-73.455 68.399-130.613 142.84-130.613h554.779c74.481 0 140.926 57.121 140.926 130.613v319.949h62.065c17.472 0 31.652 20.075 31.652 37.547s-14.154 37.547-31.626 37.547zM154.318 458.77c0 85.782 164.192 155.544 356.707 155.544 192.49 0 356.682-69.763 356.682-155.544v-25.418h-713.39v25.418zM789.359-29.727h-554.779c-37.284 0-67.971 25.031-71.327 62.578h697.507c-3.342-37.547-34.067-62.578-71.401-62.578zM867.708 70.398h-713.39v287.859h713.39v-287.859zM427.408 733.725h169.223c17.46 0 31.626 13.817 31.626 31.289s-14.18 31.289-31.626 31.289h-169.223c-17.472 0-31.652-13.817-31.652-31.289-0.012-17.472 14.154-31.289 31.652-31.289z" />
<glyph unicode="&#xe921;" glyph-name="44" d="M1006.952 584.643l-483.837 205.696c-7.025 2.997-14.994 2.997-22.094 0l-483.827-205.696c-10.655-4.532-17.474-15.123-17.185-26.702 0.311-11.6 5.156-21.814 16.068-25.735l187.124-68.579v-185.171c0-9.022 8.625-17.496 15.896-22.803 3.695-2.686 48.548-27.465 102.252-48.838v-116.247c-42.963-7.926-75.206-44.66-75.206-88.761 0-49.847 39.665-90.394 89.535-90.394s90.899 40.557 90.899 90.394c0 44.090-30.042 80.803-73.004 88.761v105.409c42.963-11.976 91.275-21.041 149.114-21.041 85.614 0 186.395 19.72 298.303 78.547 9.269 4.887 14.436 14.521 14.436 24.961v185.171l189.896 68.558c10.913 3.942 18.378 14.156 18.667 25.757 0.354 11.567-6.359 22.18-17.035 26.712zM391.423 1.809c0-31.169-25.36-56.561-56.561-56.561s-56.582 25.338-56.582 56.561c0 27.539 19.784 50.471 45.874 55.465 2.901-2.395 6.563-3.878 10.655-3.878 4.071 0 7.766 1.514 10.655 3.878 26.153-4.984 45.96-27.915 45.96-55.465zM267.69 293.698v149.532l53.704-19.237v-156.847c-21.481 9.999-42.963 19.946-53.704 26.551zM761.764 295.697c-182.592-86.656-322.221-69.794-408.147-40.954v157.019l149.801-54.499c3.083-1.117 5.853-1.655 9.151-1.655 3.255 0 7.39 0.57 10.515 1.655l238.712 85.969v-147.534h-0.032zM513.030 413.759l-159.414 57.957v23.039c0 9.355-6.799 16.927-16.111 16.927-9.334 0-16.111-7.572-16.111-16.927v-10.827l-214.331 76.861 405.903 172.926 406.784-172.926-406.719-147.029z" />
<glyph unicode="&#xe922;" glyph-name="45" d="M512.016 863.97c-282.28 0-512.015-229.674-512.015-512.015 0-282.25 229.734-511.924 512.015-511.924 282.311 0 511.984 229.674 511.984 511.924 0 282.34-229.674 512.015-511.984 512.015zM512.016-84.328c-240.57 0-436.345 195.743-436.345 436.254 0 240.601 195.774 436.375 436.345 436.375s436.314-195.774 436.314-436.375c0-240.51-195.697-436.254-436.314-436.254zM511.985 417.335c-36.065 0-65.273-29.268-65.273-65.379-0.061-35.973 29.208-65.273 65.273-65.273 36.125 0 65.348 29.329 65.348 65.273 0.015 36.125-29.223 65.379-65.348 65.379zM303.394 417.335c-36.155 0-65.287-29.268-65.287-65.379-0.061-35.973 29.178-65.273 65.287-65.273 36.065 0 65.287 29.329 65.287 65.273 0.030 36.125-29.223 65.379-65.287 65.379zM720.638 417.335c-36.094 0-65.273-29.268-65.273-65.379 0-35.973 29.208-65.273 65.273-65.273 36.094 0 65.287 29.329 65.287 65.273 0.015 36.125-29.162 65.379-65.287 65.379z" />
<glyph unicode="&#xe923;" glyph-name="46" d="M511.975 864c-282.302 0-511.961-229.659-511.961-511.936 0-282.354 229.659-512.064 511.961-512.064 282.354 0 512.013 229.71 512.013 512.064 0 282.277-229.659 511.936-512.013 511.936zM511.975-135.173c-268.595 0-487.16 218.564-487.16 487.238 0 268.595 218.564 487.134 487.16 487.134 268.62 0 487.186-218.539 487.186-487.134 0-268.699-218.564-487.238-487.186-487.238zM511.975 812.274c-253.76 0-460.21-206.45-460.21-460.21s206.462-460.235 460.21-460.235 460.184 206.45 460.184 460.235c0 253.748-206.423 460.21-460.184 460.21zM910.543 292.015c-53.395 47.103-115.813 83.879-183.822 108.836 15.494 76.475 49.783 146.97 99.361 203.445 55.596-69.123 88.992-156.821 88.992-252.234 0-20.375-1.566-40.425-4.531-60.048zM498.021 754.827v-70.365h25.889v70.365c116.499-3.535 213.633-53.163 284.594-130.686-53.123-59.544-89.73-134.026-106.739-214.901-60.399 19.261-124.356 29.577-189.945 29.577-69.705 0-137.714-11.352-201.349-32.541-16.155 78.909-51.648 152.019-102.196 211.057 71.388 81.369 173.247 133.858 289.745 137.494zM498.021-50.725c-90.61 3.003-183.020 39.74-250.745 98.725 47.182 75.309 73.213 165.855 73.213 258.356 0 25.060-2.356 49.888-6.020 74.3 58.094 19.715 118.829 30.691 183.55 32.012v-463.394zM523.91 412.67c64.722-1.269 118.117-11.223 172.859-29.072-3.948-25.306-5.785-51.143-5.785-77.239 0-95.49 26.924-188.353 76.875-264.958-66.639-55.195-153.416-89.225-244.026-92.124v463.394h0.077zM192.238 597.074c46.794-55.996 79.103-125.069 93.717-199.523-63.841-24.296-122.519-58.885-172.923-102.492-2.653 18.613-4.116 37.642-4.116 57.007 0 92.073 31.118 177.053 83.322 245.010zM118.416 265.377c49.356 45.33 107.904 81.161 171.94 106.183 2.964-21.436 4.556-43.234 4.556-65.2 0-86.016-23.442-170.127-66.443-240.505-54.159 53.615-93.122 122.453-110.052 199.523zM788.051 58.772c-45.914 71.777-70.922 158.412-70.922 247.56 0 23.157 1.67 46.096 4.958 68.592 68.217-25.656 130.53-63.634 182.761-112.473-18.070-79.323-59.531-149.727-116.797-203.679zM498.021 671.557h25.889v-64.722h-25.889v64.722zM498.021 593.891h25.889v-51.777h-25.889v51.777zM498.021 529.169h25.889v-51.777h-25.889v51.777z" />
<glyph unicode="&#xe924;" glyph-name="47" horiz-adv-x="736" d="M734.575 361.611c0 109.673-45.031 208.235-121.833 275.579v152.939c0 47.271-42.972 73.871-88.347 73.871h-320.212c-45.377 0-77.852-26.573-77.852-73.871v-152.952c-76.802-67.356-124.906-165.879-124.906-275.551s48.104-208.274 124.906-275.603v-152.952c0-47.207 32.474-93.071 77.877-93.071h320.212c45.377 0 88.322 45.851 88.322 93.071v152.913c0 5.12 10.074 10.419 15.705 16.001 69.403 69.466 106.153 161.68 106.128 259.629zM164.731 790.14c0 25.205 16.206 35.47 39.451 35.47h320.212c23.245 0 37.146-10.304 37.146-35.47v-122.205c-51.201 38.477-123.651 60.981-198.38 60.981-74.754 0-147.228-22.504-198.43-61.007v122.231zM63.8 361.611c0 165.675 134.799 300.512 300.551 300.512 165.611 0 300.411-134.774 300.411-300.512 0.025-80.156-31.27-155.549-88.079-212.434-56.82-56.82-132.226-88.156-212.331-88.156-165.739 0.051-300.551 134.889-300.551 300.59zM561.54-66.955c0-25.127-13.851-54.658-37.121-54.658h-320.212c-23.27 0-39.476 29.531-39.476 54.658v122.231c51.201-38.503 123.651-61.007 198.405-61.007 72.974 0 134.403 21.275 198.405 60.827v-122.050zM195.784 432.166l102.031-58.945c-1.178-4.954-1.972-10.023-1.972-15.322 0-36.199 29.479-65.652 65.652-65.652 36.199 0 65.677 29.479 65.677 65.652 0 7.373-1.472 14.324-3.776 20.979l167.3 121.603c5.978 4.326 7.271 12.698 2.931 18.651-4.326 5.978-12.647 7.271-18.625 2.931l-165.2-120.079c-12.006 13.145-29.121 21.582-48.296 21.582-21.3 0-40.077-10.381-52.047-26.125l-100.277 57.857c-6.375 3.699-14.579 1.497-18.279-4.903-3.75-6.388-1.524-14.554 4.877-18.228zM361.485 396.813c21.504 0 38.925-17.447 38.925-38.925s-17.422-38.95-38.925-38.95c-21.48 0-38.977 17.473-38.977 38.95 0 4.749 0.999 9.305 2.573 13.531 0.256 0.345 0.576 0.653 0.807 1.024 0.549 0.973 0.731 1.997 0.973 2.97 6.476 12.647 19.508 21.402 34.624 21.402z" />
<glyph unicode="&#xe925;" glyph-name="48" horiz-adv-x="848" d="M684.32 864h-405.721l-276.309-283.938v-578.717c0-88.967 72.378-161.345 161.345-161.345h161.345v37.173h198.055v-37.173h161.331c88.967 0 161.345 72.378 161.345 161.345v336.643h-34.553v28.053h34.553v336.672c-0.044 88.908-72.45 161.287-161.389 161.287zM773.823 432.672h-34.12v-161.345h34.12v-265.844c0-51.054-41.531-92.585-92.585-92.585h-92.571v36.752h-329.347v-36.752h-92.585c-51.054 0-92.585 41.531-92.585 92.585v297.343h34.12v129.832h-34.12v117.512l234.374 240.916h102.255v-189.224h64.836v189.224h59.971v-192.726h64.836v192.756h59.943v-192.756h64.88v181.611c28.893-15.691 48.552-46.308 48.552-81.424v-265.872h0.028zM637.013 67.671h-364.885v400.321h364.885v-400.321zM315.556 111.098h278.032v313.468h-278.032v-313.468z" />
<glyph unicode="&#xe926;" glyph-name="49" d="M1024.001 404.506h-81.623c10.633 23.814 16.468 59.88 16.468 92.183 0 151.159-122.975 273.646-274.098 273.646-63.762 0-125.166-22.278-173.996-62.512-48.866 40.234-110.235 62.166-173.996 62.166-151.135 0-274.134-122.095-274.134-273.254 0-32.28 5.835-68.418 16.491-92.232h-79.111v-35.721h92.958c12.907-23.814 29.601-47.39 50.093-67.834l367.651-367.283 367.854 367.26c20.396 20.396 37.043 44.044 49.902 67.858h95.53v35.721zM510.704 13.409l-328.001 327.192c-9.026 9.026-16.979 16.277-24.159 28.184h117.629l33.423 29.399v-101.352l67.929 71.953h42.949l79.634 75.657v-193.809l114.212 118.188h42.924l33.351 29.422v-101.375l68.001 71.953h104.329c-7.203-11.907-15.098-19.051-24.052-27.982l-328.169-327.43zM745.187 404.506l-30.768-29.672v101.328l-70.56-71.656h-42.949l-77.003-75.93v193.845l-116.843-117.902h-42.972l-30.697-29.672v101.328l-70.632-71.656h-123.082c-13.633 23.814-21.052 59.392-21.052 92.183 0 120.213 97.816 217.552 218.052 217.552 58.237 0 112.973-22.932 154.16-64.119l19.838-19.98 19.838 19.813c41.186 41.163 95.935 63.81 154.16 63.81 120.213 0 218.029-96.91 218.029-217.088 0-32.768-7.418-68.369-21.028-92.183h-136.49z" />
<glyph unicode="&#xe927;" glyph-name="50" horiz-adv-x="624" d="M520.594 674.608c-15.204 19.275-28.19 64.994-34.141 120.519-4.071 37.937-39.767 68.873-82.377 68.873h-189.838c-42.61 0-77.789-30.913-81.884-68.873-5.952-55.525-16.541-100.099-31.768-119.338-57.862-29.478-95.786-90.63-95.786-159.901v-326.897c0-69.295 37.972-129.337 95.883-158.853 15.204-19.323 26.685-65.44 32.587-120.843 4.071-37.899 38.358-69.295 80.968-69.295h189.838c42.61 0 77.812 31.371 81.884 69.295 5.952 55.465 19.36 100.147 34.539 119.482 57.911 29.455 98.701 90.896 98.701 160.214v326.874c0.024 69.248-40.755 129.241-98.605 158.744zM192.264 788.73c0.639 6 9.794 15.010 21.974 15.010h189.838c12.167 0 21.336-9.011 21.997-15.010 3.879-36.286 9.998-67.62 18.19-93.123-1.758 0.048-3.458-0.253-5.228-0.253h-259.759c-1.758 0-3.481 0.301-5.228 0.253 8.192 25.503 14.3 56.837 18.215 93.123zM426.073-84.309c-0.688-6.024-9.83-15.48-21.997-15.48h-189.838c-12.192 0-21.336 9.457-21.974 15.457-3.879 36.238-9.998 67.367-18.167 92.87 1.747-0.048 3.385 0.072 5.18 0.072h259.771c1.758 0 3.458-0.12 5.253-0.072-8.228-25.503-14.397-56.633-18.227-92.847zM558.988 186.869c0-65.174-52.851-118.001-118.025-118.001h-257.903c-65.174 0-118.025 52.826-118.025 118.001v330.209c0 65.15 52.851 118.001 118.025 118.001h257.903c65.174 0 118.025-52.851 118.025-118.001v-330.209zM446.422 449.437l-128.819-74.427-141.903 143.649c-7.035 7.108-18.443 7.18-25.576 0.168-7.084-7.012-7.157-18.443-0.145-25.552l151.721-153.564c3.506-3.529 8.168-5.361 12.866-5.361 3.084 0 6.216 0.771 9.036 2.421l140.891 81.366c8.686 4.987 11.602 16.047 6.614 24.685-4.963 8.662-16.022 11.602-24.685 6.614zM312.024 569.148c9.95 0 18.071 8.096 18.071 18.071v3.795c0 9.975-8.12 18.071-18.071 18.071-9.975 0-18.071-8.096-18.071-18.071v-3.782c0-10.010 8.096-18.082 18.071-18.082zM312.024 135.67c-9.975 0-18.071-8.12-18.071-18.071v-3.782c0-9.975 8.096-18.071 18.071-18.071 9.95 0 18.071 8.096 18.071 18.071v3.782c0 9.95-8.12 18.071-18.071 18.071zM106.331 370.047h-3.77c-9.975 0-18.071-8.096-18.071-18.071s8.096-18.071 18.071-18.071h3.77c9.975 0 18.071 8.096 18.071 18.071s-8.096 18.071-18.071 18.071zM512.005 370.047c-9.975 0-18.071-8.096-18.071-18.071s8.096-18.071 18.071-18.071h3.77c9.975 0 18.071 8.096 18.071 18.071s-8.096 18.071-18.071 18.071h-3.77z" />
<glyph unicode="&#xe928;" glyph-name="51" d="M961.65 395.91h-788.521v252.223c0 65.153 52.764 118.109 117.906 118.109 34.337 0 64.282-15.17 86.6-41.032-62.026-18.069-109.025-76.063-109.025-141.311v-20.935h298.375v20.935c0 74.224-56.274 137.838-129.65 146.228-29.778 53.457-83.95 86.577-145.32 86.577-92.974 0-166.612-75.643-166.612-168.581v-252.246h-65.69c-34.266 0-59.711-27.176-59.711-61.442 0-30.088 17.986-55.27 53.791-60.439v-75.202c0-104.67 62.814-198.659 160.467-235.693l-13.833-42.943c-3.926-13.331 3.139-27.391 16.482-31.329 12.89-3.735 27.176 4.129 31.008 17.114l12.83 41.939c13.486-2.22 26.878-5.503 40.174-5.503h419.504c14.488 0 29.085 3.497 43.419 5.991l13.14-43.514c3.151-10.658 13.092-17.557 24.18-17.557 2.399 0 4.786 0.633 7.138 1.301 6.468 1.886 11.792 6.313 15.026 12.233s3.95 12.794 2.041 19.275l-12.747 44.016c95.945 37.715 160.191 131.333 160.191 234.619v75.202c23.87 5.204 51.189 30.35 51.189 60.439-0.036 34.313-28.096 61.525-62.348 61.525zM925.033 276.56v-77.792c0-111.15-93.475-196.713-204.615-196.713h-419.504c-111.15 0-199.398 85.622-199.398 196.736v77.768h823.516zM59.699 348.17h901.951c6.432 0 11.685-5.503 11.685-11.935 0-6.457-5.227-11.935-11.685-11.935h-901.951c-6.445 0-11.685 5.478-11.685 11.935-0.012 6.432 5.239 11.935 11.685 11.935zM327.902 610.741c11.254 35.805 49.47 71.514 93.403 71.514 43.969 0 82.149-35.709 93.403-71.514h-186.806zM280.544 551.066h47.74v-59.675h-47.74v59.675zM399.894 551.066h35.805v-59.675h-35.805v59.675zM459.569 491.391h35.805v-59.675h-35.805v59.675zM340.219 491.391h47.74v-59.675h-47.74v59.675zM519.244 551.066h35.805v-59.675h-35.805v59.675z" />
<glyph unicode="&#xe929;" glyph-name="52" horiz-adv-x="784" d="M664.207 281.827c65.845 0 119.416 53.582 119.416 119.44 0 65.832-53.57 119.416-119.416 119.416-21.785 0-43.041-5.95-61.682-17.22l-175.677 141.377 3.043 3.069c11.509 11.496 17.861 26.803 17.861 43.067s-6.352 31.57-17.861 43.091l-7.472 7.472 0.339 0.364c4.931-4.842 11.37-7.597 19.030-7.76 6.969 0 13.596 2.628 18.653 7.422l32.69 30.93c10.843 10.288 11.332 27.521 1.069 38.401l-42.489 44.928c-9.899 10.465-27.973 10.956-38.414 1.057l-32.715-30.905c-5.257-4.981-8.289-11.723-8.49-18.992-0.226-7.271 2.403-14.15 7.422-19.407l5.9-6.214-1.421-1.421-21.735 21.759c-11.509 11.445-26.803 17.81-43.067 17.81s-31.558-6.364-43.067-17.861l-34.678-34.665c-15.533 3.435-31.469 5.207-47.394 5.207-57.947 0-112.433-22.578-153.413-63.557-10.54-10.54-20.024-22.213-28.137-34.665l-12.125-18.478 80.16-80.185c-10.288-14.2-15.949-31.395-15.949-49.004 0-46.313 37.659-83.97 83.946-83.97 17.597 0 34.829 5.621 49.004 15.949l96.699-96.712 18.478 12.088c12.477 8.125 24.15 17.659 34.703 28.199 49.142 49.129 71.569 119.98 60.588 188.331l155.314-125.011c-12.264-19.131-18.666-41.143-18.666-63.871 0-34.665 14.842-65.204 40.904-87.945l-195.902-297.268h-189.323c-14.968 0-30.576-15.949-30.576-30.905v-31.985h-73.455c-14.968 0-27.168-14.918-27.168-29.873v-56.262c0-14.955 12.201-27.068 27.168-27.068h573.543c14.968 0 28.187 12.113 28.187 27.068v56.262c0 14.955-13.22 29.873-28.187 29.873h-72.437v31.985c0 14.955-16.591 30.905-31.596 30.905h-111.241l179.148 271.583c10-2.654 20.213-5.85 30.489-5.85zM200.394-97.135h447.411v-12.578h-528.274v12.578h80.863zM220.127-59.401v25.156h327.027v-25.156h-327.027zM592.788 401.267c0 39.381 32.035 71.418 71.443 71.418 39.356 0 71.368-32.035 71.368-71.418s-32.011-71.418-71.368-71.418c-39.394 0-71.443 32.035-71.443 71.418zM148.634 490.42c-19.773 0-35.898 16.062-35.898 35.898 0 7.195 2.127 14.049 5.987 19.798l49.772-49.746c-5.786-3.836-12.641-5.95-19.861-5.95zM122.649 601.257l-60.010 60.010c3.786 4.692 7.811 9.169 12.038 13.409 31.91 31.884 74.335 49.481 119.44 49.481 16.313 0 32.263-2.365 47.507-6.779l4.351-1.396c12.753-4.075 24.741-9.585 35.936-16.389 0.415-0.264 0.831-0.566 1.308-0.831 2.113-1.308 4.176-2.654 6.201-4.049 0.893-0.616 1.761-1.233 2.641-1.836 1.622-1.157 3.22-2.365 4.818-3.56 0.919-0.718 1.848-1.421 2.817-2.163 1.61-1.32 3.195-2.628 4.767-3.999 0.78-0.668 1.56-1.308 2.327-1.962 2.314-2.089 4.566-4.2 6.804-6.44 0.276-0.264 0.54-0.642 0.843-0.906 3.749-3.836 7.321-7.71 10.628-11.81 0.718-0.855 1.308-1.823 2-2.679 2.817-3.61 5.559-7.195 8.074-10.981 0.465-0.718 0.831-1.447 1.308-2.189 2.566-3.999 5.007-8.087 7.195-12.288 0.175-0.252 0.264-0.54 0.389-0.793 32.942-63.608 22.804-143.905-30.463-197.222-4.251-4.277-8.742-8.277-13.409-12.038l-177.512 177.412zM362.409 681.869c-1.032 1.396-2.089 2.779-3.17 4.126-1.596 1.988-3.22 3.949-4.893 5.925-0.982 1.133-1.912 2.29-2.918 3.409-2.604 2.892-5.257 5.774-8.074 8.603-0.088 0.101-0.175 0.201-0.276 0.29-0.025 0.025-0.050 0.075-0.101 0.101-3.685 3.66-7.509 7.12-11.395 10.515-0.793 0.692-1.547 1.32-2.352 2.012-3.836 3.22-7.773 6.289-11.798 9.181-0.755 0.515-1.471 1.057-2.264 1.572-9.018 6.364-18.464 11.988-28.276 16.804l23.27 23.27c4.868 4.868 13.371 4.842 18.175 0l67.607-67.607c2.415-2.403 3.761-5.647 3.761-9.094 0-3.409-1.32-6.653-3.761-9.119l-20.074-20.062c-0.439 0.768-0.956 1.447-1.396 2.239-1.596 2.628-3.22 5.232-4.931 7.811-0.968 1.447-1.976 2.88-2.981 4.301-1.346 1.938-2.705 3.824-4.15 5.723zM415.074 831.27l52.602-55.595-8.917-8.478-52.626 55.619 8.943 8.452z" />
<glyph unicode="&#xe92a;" glyph-name="53" horiz-adv-x="784" d="M392.006 864c-216.215 0-392.11-176.318-392.11-392.495 0-15.968 12.983-29.371 28.951-29.371h328.212v-24.085h-20.93c-15.945 0-27.241-19.004-27.241-34.972v-386.522h-227.282c-15.968 0-25.614-7.226-25.614-23.194v-99.329c0-15.968 9.646-34.032 25.614-34.032h620.764c15.968 0 27.987 18.064 27.987 34.032v99.329c0 15.968-12.019 23.194-27.987 23.194h-224.886v386.51c0 15.968-13.656 34.972-29.613 34.972h-30.6v24.085h144.512v-156.038c-12.043-8.117-25.494-25.59-25.494-44.787 0-27.349 23.713-49.531 51.013-49.531 27.337 0 47.87 22.23 47.87 49.531 0 22.159-13.175 41.402-37.261 47.46v153.339h157.242c15.968 0 28.951 13.38 28.951 29.359 0.023 216.227-175.919 392.543-392.098 392.543zM116.204-99.801v48.171h553.963v-48.171h-553.963zM369.1 8.583v349.238h48.171v-349.238h-48.171zM588.808 226.749c-8.021 0-14.536 6.538-14.536 14.559s6.515 14.559 14.536 14.559c8.045 0 14.559-6.538 14.559-14.559s-6.515-14.559-14.559-14.559zM392.006 807.544c173.137 0 318.168-136.637 332.932-305.234h-665.864c14.788 168.621 159.795 305.234 332.932 305.234z" />
<glyph unicode="&#xe92b;" glyph-name="54" d="M1023.999 565.886c0 12.713-10.26 22.985-22.985 22.985h-42.436v33.931c0 61.874-50.317 112.216-112.19 112.216h-664.542c-61.874 0-112.216-50.342-112.216-112.216v-33.931h-46.644c-12.713 0-22.985-10.26-22.985-22.985v-270.579c0-4.596 1.307-8.854 3.674-12.428-2.341-3.598-3.674-7.856-3.674-12.452v-165.422c0-12.713 10.26-23.011 22.985-23.011h46.671v-113.013h122.040v113.013h669.796v-113.013h122.040v113.013h17.482c12.701 0 22.985 10.31 22.985 23.011v165.386c0 4.596-1.333 8.854-3.674 12.428 2.341 3.598 3.674 7.856 3.674 12.452v270.616zM145.734 14.966h-30.058v55.137h30.058v-55.137zM937.57 14.966h-30.058v55.137h30.058v-55.137zM978.065 318.256h-84.872v224.644h84.872v-224.644zM115.675 622.765c0 36.533 29.697 66.194 66.168 66.194h664.542c36.509 0 66.218-29.697 66.218-66.194v-33.931h-42.436c-12.713 0-23.011-10.26-23.011-22.985v-270.604c0-0.635 0.050-1.245 0.1-1.817h-670.531c0.024 0.61 0.074 1.245 0.074 1.817v270.641c0 12.713-10.26 22.985-23.011 22.985h-38.152l0.038 33.893zM45.969 542.899h84.896v-224.644h-84.896v224.644zM45.969 247.417h932.057v-119.463h-932.057v119.463z" />
<glyph unicode="&#xe92c;" glyph-name="55" d="M1023.999 509.749c0 10.927-8.864 19.747-19.747 19.747h-28.511v22.189c0 47.164-38.367 85.542-85.542 85.542h-753.311c-47.153 0-85.542-38.344-85.542-85.542v-22.189h-31.598c-10.927 0-19.747-8.82-19.747-19.747v-199.562c0-3.334 0.892-6.401 2.353-9.165-1.46-2.721-2.353-5.809-2.353-9.143v-122.014c0-10.916 8.864-19.747 19.747-19.747h31.621v-83.346h95.555v83.346h751.595v-83.346h95.533v83.346h10.124c10.893 0 19.736 8.842 19.736 19.747v122.003c0 3.334-0.847 6.422-2.33 9.165 1.483 2.742 2.33 5.809 2.33 9.143v199.573h0.089zM107.485 106.222h-16.591v35.077h16.591v-35.077zM954.612 106.222h-16.591v35.077h16.591v-35.077zM984.516 329.934h-57.065v160.091h57.065v-160.091zM90.871 551.695c0 25.388 20.683 46.060 46.060 46.060h753.322c25.345 0 46.060-20.672 46.060-46.060v-22.211h-28.556c-10.893 0-19.736-8.82-19.736-19.736v-198.146l-752.041-0.022v198.168c0 10.916-8.82 19.736-19.736 19.736h-25.388v22.211h0.011zM39.471 490.025h57.032v-160.080h-57.032v160.080zM39.471 272.122h945.046v-82.554h-945.046v82.554zM243.436 492.767c17.248 0 31.253 14.027 31.253 31.253s-14.004 31.253-31.253 31.253c-17.226 0-31.253-14.027-31.253-31.253s14.027-31.253 31.253-31.253zM243.436 535.539c6.333 0 11.495-5.207 11.495-11.518 0-6.333-5.163-11.495-11.495-11.495-6.311 0-11.473 5.163-11.473 11.495 0 6.311 5.163 11.518 11.473 11.518zM243.436 357.374c17.248 0 31.253 14.004 31.253 31.209 0 17.226-14.004 31.253-31.253 31.253-17.226 0-31.253-14.004-31.253-31.253 0.022-17.204 14.027-31.209 31.253-31.209zM243.436 400.1c6.333 0 11.495-5.186 11.495-11.518 0-6.311-5.163-11.473-11.495-11.473-6.311 0-11.473 5.163-11.473 11.473 0 6.367 5.163 11.518 11.473 11.518zM496.617 492.767c17.226 0 31.275 14.027 31.275 31.253s-14.049 31.253-31.275 31.253-31.253-14.027-31.253-31.253 14.027-31.253 31.253-31.253zM496.617 535.539c6.333 0 11.518-5.207 11.518-11.518 0-6.333-5.186-11.495-11.518-11.495-6.289 0-11.473 5.163-11.473 11.495 0 6.311 5.186 11.518 11.473 11.518zM496.617 357.374c17.226 0 31.275 14.004 31.275 31.209 0 17.226-14.049 31.253-31.275 31.253s-31.253-14.004-31.253-31.253c0.022-17.204 14.027-31.209 31.253-31.209zM496.617 400.1c6.333 0 11.518-5.186 11.518-11.518 0-6.311-5.186-11.473-11.518-11.473-6.289 0-11.473 5.163-11.473 11.473 0 6.367 5.186 11.518 11.473 11.518zM749.822 492.767c17.226 0 31.275 14.027 31.275 31.253s-14.027 31.253-31.275 31.253c-17.226 0-31.253-14.027-31.253-31.253s14.027-31.253 31.253-31.253zM749.822 535.539c6.333 0 11.495-5.207 11.495-11.518 0-6.333-5.163-11.495-11.495-11.495-6.311 0-11.473 5.163-11.473 11.495 0 6.311 5.163 11.518 11.473 11.518zM749.822 357.374c17.226 0 31.275 14.004 31.275 31.209 0 17.226-14.027 31.253-31.275 31.253-17.226 0-31.253-14.004-31.253-31.253 0.022-17.204 14.027-31.209 31.253-31.209zM749.822 400.1c6.333 0 11.495-5.186 11.495-11.518 0-6.311-5.163-11.473-11.495-11.473-6.311 0-11.473 5.163-11.473 11.473 0 6.367 5.163 11.518 11.473 11.518z" />
<glyph unicode="&#xe92d;" glyph-name="56" d="M1004.653 216.687c12.089 15.747 19.347 35.357 19.347 56.681 0 51.574-41.96 93.567-93.544 93.567h-497.904c12.917 13.296 20.887 31.423 20.887 51.449 0 40.821-33.206 74.002-73.98 74.002h-117.308c-26.581 0-49.826-14.112-62.881-35.185v156.69c0 51.574-41.982 93.544-93.567 93.544h-12.158c-51.528 0-93.544-41.935-93.544-93.544v-417.345c0 0 0-0.046 0-0.068v-99.538c0-11.169 9.052-20.221 20.221-20.221h27.719v-80.157h97.926v80.157h714.348v-80.157h97.904v80.157h45.606c11.192 0 20.243 9.052 20.243 20.221v99.606c0.035 10.869-8.523 19.645-19.312 20.14zM105.459 37.017h-17.012v35.943h17.012v-35.943zM917.745 37.017h-17.012v35.943h17.012v-35.943zM983.512 273.345c0-29.294-23.786-53.081-53.058-53.081h-731.151v106.185h731.151c29.272 0.022 53.058-23.809 53.058-53.104zM262.173 451.913h117.308c18.484 0 33.539-15.056 33.539-33.562s-15.056-33.539-33.539-33.539h-117.308c-18.484 0-33.539 15.033-33.539 33.539s15.033 33.562 33.539 33.562zM209.068 366.913h-9.8v12.652c2.864-4.612 6.095-8.811 9.8-12.652zM40.496 613.894c0 29.294 23.786 53.104 53.081 53.104h12.158c29.294 0 53.104-23.809 53.104-53.104v-397.138h-118.342v397.138zM983.512 117.172h-942.994v59.178h942.994v-59.178z" />
<glyph unicode="&#xe92e;" glyph-name="57" d="M1024 602.84c0 41.693-33.931 75.602-75.602 75.602h-872.819c-41.648 0-75.579-33.908-75.579-75.602 0-41.671 33.931-75.602 75.579-75.602h3.459v-319.565c0-47.325 37.029-86.078 83.611-89.041v-93.075h123.694v92.758h462.759v-92.758h123.683v92.758h3.459c49.264 0 89.357 40.072 89.357 89.357v321.604c33.436 7.819 58.4 37.807 58.4 73.562zM831.566 66.789h-41.231v45.805h41.231v-45.805zM245.135 66.789h-41.231v45.805h41.231v-45.805zM924.38 207.651c0-26.519-21.584-48.104-48.115-48.104h-707.904c-26.519 0-48.115 21.584-48.115 48.104v319.588h804.11l0.022-319.588zM948.421 568.492h-872.819c-18.949 0-34.371 15.4-34.371 34.349s15.423 34.371 34.371 34.371h872.83c18.971 0 34.394-15.423 34.394-34.371-0.079-18.949-15.479-34.349-34.405-34.349zM164.949 193.941h467.31c5.7 0 10.319 4.596 10.319 10.296v286.365c0 5.7-4.641 10.319-10.319 10.319h-467.31c-5.7 0-10.319-4.618-10.319-10.319v-286.365c0-5.7 4.63-10.296 10.319-10.296zM175.279 480.284h446.672v-265.727h-446.672v265.727zM691.83 193.941h178.658c5.7 0 10.319 4.596 10.319 10.296v286.365c0 5.7-4.618 10.319-10.319 10.319h-178.658c-5.7 0-10.296-4.618-10.296-10.319v-286.365c0-5.7 4.573-10.296 10.296-10.296zM702.126 480.284h158.063v-265.727h-158.063v265.727zM306.96 434.446h174.106v-20.615h-174.106v20.615zM746.816 434.446h77.888v-20.615h-77.888v20.615z" />
<glyph unicode="&#xe92f;" glyph-name="58" horiz-adv-x="656" d="M569.146 434.65h-122.366c0.176 0.746 0.253 1.547 0.253 2.316v42.058c0 7.31-5.937 13.225-13.225 13.225h-94.619v173.599h-26.989v4.566h62.056v-57.468c-7.178-4.007-12.117-11.623-12.117-20.36 0-12.995 10.548-23.52 23.52-23.52s23.498 10.548 23.498 23.52c0 9.966-6.278 18.461-15.070 21.842v56.019h62.056c10.975 0 19.833 8.901 19.833 19.833 0 95.815-77.904 173.72-173.676 173.72-95.761 0-173.676-77.926-173.676-173.72 0-10.954 8.901-19.833 19.833-19.833h143.944v-4.566h-26.968v-173.588h-94.619c-7.288 0-13.204-5.915-13.204-13.225v-42.058c0-0.769 0.109-1.569 0.22-2.316h-70.989c-47.348 0-85.916-38.546-85.916-85.916v-373.319c0-45.142 35.023-82.163 79.341-85.576v-49.883h39.633v49.565h405.281v-49.565h39.61v49.565h4.369c47.337 0 85.916 38.567 85.916 85.916v373.298c-0.033 47.337-38.6 85.872-85.927 85.872zM385.669 588.932c-2.019 0-3.644 1.602-3.644 3.665 0 2.019 1.624 3.665 3.644 3.665 2.042 0 3.688-1.647 3.688-3.665 0-2.042-1.647-3.665-3.688-3.665zM302.255 824.323c67.181 0 122.98-49.664 132.606-114.21h-265.19c9.625 64.525 65.403 114.21 132.584 114.21zM291.816 639.431h20.897v-146.797h-20.897v146.797zM183.994 465.819h236.599v-15.65h-236.599v15.65zM86.805 395.017h482.318c25.507 0 46.283-20.776 46.283-46.262v-191.983h-574.862v191.962c0 25.528 20.7 46.283 46.262 46.283zM569.146-70.815h-482.339c-25.528 0-46.262 20.776-46.262 46.283v161.493h574.862v-161.504c0-25.528-20.776-46.273-46.262-46.273zM273.103 260.293h105.726v-19.833h-105.726v19.833zM273.103 44.428h105.726v-19.81h-105.726v19.81z" />
<glyph unicode="&#xe930;" glyph-name="59" d="M574.104 77.189c-18.743 0-33.981-15.213-33.981-33.981 0-18.719 15.237-33.957 33.981-33.957 18.769 0 33.957 15.237 33.957 33.957 0 18.769-15.213 33.981-33.957 33.981zM574.104 31.291c-6.581 0-11.941 5.384-11.941 11.941 0 6.581 5.358 11.966 11.941 11.966s11.966-5.384 11.966-11.966-5.37-11.941-11.966-11.941zM411.297 9.25c18.743 0 33.981 15.237 33.981 33.957 0 18.769-15.237 33.981-33.981 33.981s-33.957-15.213-33.957-33.981c0-18.707 15.213-33.957 33.957-33.957zM411.297 55.197c6.605 0 11.966-5.384 11.966-11.966 0-6.556-5.358-11.941-11.966-11.941-6.556 0-11.941 5.384-11.941 11.941 0 6.581 5.358 11.966 11.941 11.966zM939.379 333.458h-259.59v72.544h-84.72v52.985h154.176c38.415 0 69.717 31.301 69.717 69.742v241.821c0 38.439-31.277 69.717-69.717 69.717h-493.212c-38.439 0-69.717-31.277-69.717-69.717v-241.797c0-38.464 31.277-69.742 69.717-69.742h154.151v-53.009h-84.694v-72.544h-240.857c-46.663 0-84.633-37.933-84.633-84.633v-244.204c0-43.824 33.475-79.953 76.187-84.187v-56.701h44.033v56.294h778.325v-56.294h44.008v56.405c45.169 1.715 81.447 38.896 81.447 84.484v244.217c0.037 46.663-37.946 84.621-84.621 84.621zM230.327 528.751v241.821c0 14.15 11.582 25.709 25.709 25.709h493.163c14.15 0 25.709-11.558 25.709-25.709v-241.821c0-14.175-11.582-25.709-25.709-25.709h-493.163c-14.138 0-25.709 11.532-25.709 25.709zM454.243 410.804v46.614h96.733v-46.614h-96.733zM369.55 361.993h266.159v-5.186h-266.159v5.186zM84.634 289.449h854.759c22.398 0 40.588-18.263 40.588-40.612v-100.66h-935.934v100.66c0 22.349 18.176 40.612 40.588 40.612zM44.046 4.62v121.528h437.646v-162.115h-397.059c-22.412-0.024-40.588 18.213-40.588 40.588zM939.379-35.992h-435.645v162.139h476.233v-121.554c0.012-22.349-18.176-40.588-40.588-40.588z" />
</font>
</defs>
</svg>
